MEGA SALE -50% FORZA HORIZON 4 ULTIMATE+ВСЕ DLC+ОНЛАЙН всего за 599р. 299 руб. (супер цена). Внимание количество ограничено!!!

iTunes

1+1

iTunes

мы

iTunes

1

iTunes

Чернобыль

1 сезон

Ральф против интернета

Лицензия

ПШазам

Лицензия

Игра престолов

Лицензия

30
pack

ВАЖНО

!!Акция!!

Alien_RageХит недели

RePack

Resident Evil 21

ИГРА 18+

pack

RePack

Metro:Exodus

!!Акция!!

Alien_Rage

RePack

fifa19

RePack

Assassins Creed: Odyssey

RePack

NEED FOR SPEED™ PAYBACK

3 сезон

9 сезон

Бесстыжие 9 сезон

Все сериалы

все сериалы на PB.wtf

RePack

FAR CRY 5
Ребята, катастрофически не хватает 7730р. для оплаты серверов за ИЮЛЬ (всвязи с блокировками трафик упал в 3 раза), 1-2р., выручайте.
  

Горбун / Le bossu (Андре Юнебель) [1959 г., боевик, приключения, DVDRip, DUB (лицензия)] piratbit.org

Горбун через торрент piratbit.org

Размер: 1.53 GB | Добавлен: 7 лет назад | Торрент скачан:50 раз
Скачать  

03-08-2012 06:59 Горбун Скачать торрент  

Горбун / Le bossu

Год выпуска: 1959
Страна: Франция, Италия
Жанр: боевик, приключения
Продолжительность: 01:40:22
Перевод: Дубляж (Лицензия)

Режиссер: Андре Юнебель
Продюссер: Пол Кадеак
Сценарий: Пьер Фуко, Жан Ален, Андре Юнебель

Премьера в мире: 26 ноября 1959

IMDb: 6.80 (424)
Кинопоиск: 7.768 339

В ролях: Жан Марэ, Бурвиль, Забине Зессельманн, Жан Ле Пулен, Юбер Ноэль, Полетт Дюбо, Эдмон Бошан, Александр Риньо, Поль Камбо, Жорж Дукинг, Анни Андерсон, Франсуа Шометт, Рауль Бийре, Барбара Круз, Розита Фернандез, Ги Делорм, Пакеретт, Жан Ружери, Эдмон Тамиз, Ален Ноби, Бернар Деран, Рене Руссель, Жан-Мишель Рузьер, Франсуаз Дельдик, Моника Жюст

Описание: Эта история началась в 1701 году, когда Францией правил «Король-Солнце» Людовик XIV. Шевалье Лагардер спасает от расправы слуг короля незаконнорожденную дочь смертельно раненного принца Филиппа де Невер и скрывается с грудным ребенком от преследования в Испании.

Он и его верный слуга Паскуаль воспитывают девочку Аврору в течение пятнадцати лет. В 1716 году, вернувшись в Париж, шевалье переодевается горбуном, чтобы войти в доверие к высокопоставленным вельможам во дворце короля, ведь его горб приносит счастье.

Благодаря своей хитрости, умению перевоплощаться и острому клинку шпаги, герой разрушает все коварные замыслы врагов и спасает честь семьи своей приемной дочери…

Доп. информация: Фильм занимает 28-е место по посещаемости среди зарубежных лент в советском кинопрокате.
СССР - 44.9 млн
Франция - 5.8 млн
Сергей Кудрявцев :
Историко-приключенческий фильм

Роман «Горбун» французского писателя Поля Феваля, изданный ещё в 1857 году, переносился на экран около десятка раз за время существования кино. Версия Андре Юнебеля, снятая в 1959 году, пользовалась большой популярностью (второе место по итогам года, а в целом она находится до сих пор в сотне суперкассовых лент за всю историю кинопроката во Франции), также став «самым зрительским» произведением этого режиссёра на его родине. Интересно, что и в СССР, будучи выпущенной только 20 лет спустя, картина Юнебеля привлекла 44,9 млн. человек, почти сравнявшись по результатам с его же «Фантомасом», более пародийным по своей сути.

Вообще-то Андре Юнебель на протяжении тридцатилетней карьеры в кино испытывал наибольший интерес именно к этим двум жанрам — комедийному и историко-приключенческому. Ранее он уже обращался к экранизации «Трёх мушкетёров» Александра Дюма, а после «Горбуна» снял подряд ещё три авантюрных фильма на материале минувших времён — «Капитан», «Чудо волков» (в советском прокате — «Тайна Бургундского двора») и «Парижские тайны». Причём во всех четырёх упомянутых лентах главные роли сыграл Жан Маре, оказавшийся кумиром для многих поклонников именно как «маэстро плаща и шпаги».

В «Горбуне», действие которого происходит в блестящую эпоху короля Людовика XIV, этот актёр исполнил роль благородного дворянина Анри де Лагардера, ставшего случайным свидетелем убийства Филиппом де Гонзагом своего кузена, герцога Филиппа де Невера. Поклявшись отомстить за герцога и позаботиться о его дочери Авроре, романтический герой принимает в целях конспирации облик горбуна и совершает дерзкие поступки, отстаивая честь и справедливость. И Маре в качестве де Лагардера нет равных ни во владении шпагой, ни собственным натренированным телом (исполнителю во время съёмок было уже 45 лет!) — он выходит победителем даже в безнадёжных ситуациях, распутывая хитросплетения придворных интриг. А комедийный актёр Бурвиль, сыграв Паспуаля, верного спутника Анри де Лагардера, вносит дополнительные юмористические краски в этот приключенческий сюжет.

Качество: DVDRip
Формат: AVI
Видео кодек: DivX
Аудио кодек: AC3
Видео: 688x288 (2.39:1), 25 fps, DivX Codec 5.x or 6.x ~1551 kbps avg, 0.31 bit/pixel
Аудио#1: 48 kHz, AC3 Dolby Digital, 2/0 (L,R) ch, ~192.00 kbps avg (Советский дубляж)
Аудио#2: 48 kHz, AC3 Dolby Digital, 2/0 (L,R) ch, ~192.00 kbps avg (Многоголосый закадровый)
Аудио#3: 48 kHz, AC3 Dolby Digital, 2/0 (L,R) ch, ~224.00 kbps avg (Оригинал-Французский)









Общее
Полное имя : H:torrentGorbun.1959.DivX.DVDRip.сторонний ресурс.avi
Формат : AVI
Формат/Информация : Audio Video Interleave
Размер файла : 1,53 Гбайт
Продолжительность : 1 ч. 40 м.
Общий поток : 2180 Кбит/сек
Программа кодирования : VirtualDubModRus 1.5.10.2 (build 2540/release)
Библиотека кодирования : VirtualDubMod build 2540/release

Видео
Идентификатор : 0
Формат : MPEG-4 Visual
Параметр BVOP формата : 1
Параметр QPel формата : Нет
Параметр GMC формата : Без точки перехода
Параметр матрицы формата : Default (H.263)
Режим смешивания : Сжатый битовый поток
Идентификатор кодека : DX50
Идентификатор кодека/Подсказка : DivX 5
Продолжительность : 1 ч. 40 м.
Битрейт : 1553 Кбит/сек
Ширина : 688 пикс.
Высота : 288 пикс.
Соотношение сторон : 2,35:1
Частота кадров : 25,000 кадр/сек
Цветовое пространство : YUV
Подвыборка цветности : 4:2:0
Битовая глубина : 8 бит
Тип развёртки : Прогрессивная
Метод сжатия : С потерями
Бит/(Пиксели*Кадры) : 0.313
Размер потока : 1,09 Гбайт (71%)
Библиотека кодирования : DivX 6.8.3-6.8.4 (UTC 2008-06-07)

Аудио #1
Идентификатор : 1
Формат : AC-3
Формат/Информация : Audio Coding 3
Профиль формата : Dolby Digital
Расширение режима : CM (complete main)
Идентификатор кодека : 2000
Продолжительность : 1 ч. 40 м.
Вид битрейта : Постоянный
Битрейт : 192 Кбит/сек
Каналы : 2 канала
Расположение каналов : Front: L R
Частота : 48,0 КГц
Битовая глубина : 16 бит
Метод сжатия : С потерями
Размер потока : 138 Мбайт (9%)
Выравнивание : Разделение по промежуткам
Продолжительность промежутка : 40 мс. (1,00 видеокадр)
Время предзагрузки промежутка : 500 ms

Аудио #2
Идентификатор : 2
Формат : AC-3
Формат/Информация : Audio Coding 3
Профиль формата : Dolby Digital
Расширение режима : CM (complete main)
Идентификатор кодека : 2000
Продолжительность : 1 ч. 40 м.
Вид битрейта : Постоянный
Битрейт : 192 Кбит/сек
Каналы : 2 канала
Расположение каналов : Front: L R
Частота : 48,0 КГц
Битовая глубина : 16 бит
Метод сжатия : С потерями
Размер потока : 138 Мбайт (9%)
Выравнивание : Разделение по промежуткам
Продолжительность промежутка : 40 мс. (1,00 видеокадр)
Время предзагрузки промежутка : 500 ms

Аудио #3
Идентификатор : 3
Формат : AC-3
Формат/Информация : Audio Coding 3
Расширение режима : CM (complete main)
Идентификатор кодека : 2000
Продолжительность : 1 ч. 40 м.
Вид битрейта : Постоянный
Битрейт : 224 Кбит/сек
Каналы : 2 канала
Расположение каналов : Front: L R
Частота : 48,0 КГц
Битовая глубина : 16 бит
Метод сжатия : С потерями
Размер потока : 161 Мбайт (10%)
Выравнивание : Разделение по промежуткам
Продолжительность промежутка : 40 мс. (1,00 видеокадр)
Время предзагрузки промежутка : 500 ms

piratbit.org



Скачать Горбун через торрент http://pic.kartinco.top/images/1/t2cvi93gta.jpg Скачать фильм Горбун через торрент бесплантно в хорошем качестве Описание: Эта история началась в 1701 году, когда Францией правил «Король-Солнце» Людовик XIV. Шевалье Лагардер спасает от расправы слуг ... 10 10 3
Info! Золотая раздача, скачанное не засчитывается.
Торрент: Зарегистрирован [2012-08-03 06:59] · скачан: 50 раз
Статус: √ проверено
Размер: 1.53 GB
Как cкачать? Как скачать Горбун через торрент | qTorrent

% Раздел Тема Автор DL S | L
Фильмы до 2000 г. [ 2.19 GB ] Горбун / Le Bossu [1997 г HDRip] 2xMVO koenig Скачать
1 | 0
Фильмы [HD 720p, 1080p] (Хороший звук DUB, MVO) [ 5.17 GB ] Горбун / Le Bossu [1997 BDRip 720p] MVO AVO msltel Скачать
1 | 0
Фильмы [HD 720p, 1080p] (Хороший звук DUB, MVO) [ 15.78 GB ] Горбун / Le Bossu [1997 BDRip 1080p] MVO AVO msltel Скачать
1 | 0
Фильмы до 2000 г. [ 3.17 GB ] Горбун / Le Bossu [1997 BDRip AVC] MVO AVO msltel Скачать
1 | 0


>> Регистрируемся здесь <<






Отзывы и комментарии о схеме читаем и пишем здесь: ---> Отзывы и комментарии о схеме

Новые благодарочки в телеграм довольных пользователей:
скриншот   скриншот   скриншот   скриншот   скриншот
    Дорогой пользователь! Огромная просьба, поблагодарите релизера, оцените раздачу и оставьте свои комментарий, если Вы скачали Горбун через торрент бесплатно! Внесите свою лепту в развитие PiratBit!
    Комментировать посты могут только пользователи прошедшие не сложную регистрацию
    Показать сообщения:    

    Горбун через торрент
    Скачать бесплатно Горбун
    Горбун скачать торрент
    Горбун смотреть онлайн
    Cкачать фильм Горбун бесплатно
    Горбун скачать торрент в хорошем качестве
    Горбун смотреть онлайн бесплатно в хорошем качестве


    Вы не можете начинать темы
    Вы не можете отвечать на сообщения
    Вы не можете редактировать свои сообщения
    Вы не можете удалять свои сообщения
    Вы не можете голосовать в опросах
    Вы не можете прикреплять файлы к сообщениям
    Вы можете скачивать файлы