Наша группа ВК в очередной раз забанена мы уходим в Телеграм, присоединяйтесь!!!

Лицензия

30

iTunes

Как приручить дракона 3

iTunes

1

1 сезон

Чернобыль

iTunes

Снегоуборщик

iTunes

Закатать в асфальт

8 сезон

Игра престолов

iTunes

Ральф против интернета Хит недели

ИГРА 18+

pack

ВАЖНО

!!Акция!!

Alien_RageХит недели

RePack

Resident Evil 21
pack

RePack

Metro:Exodus

!!Акция!!

Alien_Rage

RePack

fifa19

RePack

Assassins Creed: Odyssey

RePack

NEED FOR SPEED™ PAYBACK

3 сезон

9 сезон

Бесстыжие 9 сезон

Все сериалы

все сериалы на PB.wtf

RePack

FAR CRY 5
Ребята, катастрофически не хватает 2730р. для оплаты серверов за АПРЕЛЬ (всвязи с блокировками трафик упал в 3 раза), 1-2р., выручайте.
  

Комиссар полиции обвиняет / Un comisar acuza (Серджиу Николаеску) [1975 г., боевик, триллер, драма, криминал, DVDRip, DUB (лицензия)] piratbit.org

Комиссар полиции обвиняет через торрент piratbit.org

Размер: 1.37 GB | Добавлен: 6 лет 9 мес. назад | Торрент скачан:36 раз
Скачать  

03-08-2012 10:40 Комиссар полиции обвиняет Скачать торрент  

Комиссар полиции обвиняет / Un comisar acuza

Год выпуска: 1975
Страна: Румыния
Жанр: боевик, триллер, драма, криминал
Продолжительность: 01:48:09
Перевод: Дубляж (Лицензия)

Режиссер: Серджиу Николаеску
Сценарий: Эуджен Бурада, Винтилэ Корбул, Мирча Гандила

Премьера в мире: 21 августа 1975

IMDb: 6.90 (429)
Кинопоиск: 7.536 72

В ролях: Серджиу Николаеску, Жан Константин, Георге Диникэ, Константин Динулеску, Штефан Михэйлеску-Брэила, Мария Плоае, Йон Бесою, Cабо Чех, Марин Морару, Амза Пелля

Описание: 1939 год. В королевской Румынии установлена диктатура генерала Антонеску. Легионеры из карательной группировки «Железная гвардия», тайно мечтавшие о захвате власти нелегально расправляются со своими политическими противниками. Так, в тюрьме «Верага» ими был устроен кровавый расстрел опасных для них оппонентов-заключённых. Но об убийствах в «Вераге» становится известно общественности.

Дабы отвести от себя подозрение легионеровская верхушка решает спихнуть свои грехи на коммунистов и «доверяет следствие» нейтральному в политике комиссару Микловану, полагая, что это развяжет им руки. Но опытный следователь быстро соображает, что ему подсунули заведомо дурное дело и расследует его не «по заказу», а по профессиональной совести, чем бросает вызов своим нанимателям.

Начинается открытая охота разъярённых легионеров на несговорчивого комиссара и его родственников. Но ловкий стрелок Миклован оказывается куда более «крепким орешком», чем предполагали его вчерашние «работодатели». Война между отважным следователем-одиночкой и легионерами разгорается с каждым днём…

Доп. информация: Бойцы «Железной Гвардии» (они же «Легион Михаила Архангела») устраивают кровавую бойню в тюрьме, куда приехали «как бы с проверкой». Акция прошла не совсем гладко и теперь необходимо как-то отчитаться перед руководством страны. Расследование поручают комиссару Молдовану, человеку честному и абсолютно аполитичному. Но легионеры не учли, что комиссар человек не такой глупый и не купится на те фальшивые доказательства, которые ему настойчиво навязывают.

Отлиный ретро-боевик. Очень динамичный, с обаятельным комиссаром Тюдором Молдованом в исполнении Серджиу Николаэску. Единственный минус — сценарий. В плане сценария самым удачным, на мой взгляд, был фильм, вышедший первым — «Чистыми руками», после которого, собственно, «всё заверте…» Там авторы не торопились выкладывать сразу все карты на стол, и напряжение сохранялось до самого конца. Здесь же Молдован относительно быстро раскрывает дело, и последние полчаса целиком отданы погоням-перестрелкам, пусть и снятым довольно зрелищно, — создаётся ощущение, что режиссёр пытается впихнуть побольше эффектных сцен (как например сцена с телефонной будкой) и всё не решается поставить, наконец, финальную точку. Но поставить её всё же придётся, и Николаэску сделает это мастерски.

Фильм до сих пор смотрится неплохо и вполне даже может служить ещё образцом (хотя Николаэску и сам многое явно позаимствовал из американского гангстерского кино, что-то взял у Мельвилля) для многих современных «мастеров».
Так как фильм купировался для советского проката, в вырезанных моментах - одноголосый перевод.

Качество: DVDRip
Формат: AVI
Видео кодек: XviD
Аудио кодек: AC3
Видео: 688x512 (1.34:1), 25 fps, XviD build 47 ~1420 kbps avg, 0.16 bit/pixel
Аудио#1: 48 kHz, AC3 Dolby Digital, 1/0 (C) ch, ~192.00 kbps avg (Советский дубляж)
Аудио#2: 48 kHz, AC3 Dolby Digital, 2/0 (L,R) ch, ~192.00 kbps avg (Профессиональный (одноголосый))








Общее
Полное имя : H:torrentKomissar.policiji.obviniajet.XviD.DVDRip-сторонний ресурс.avi
Формат : AVI
Формат/Информация : Audio Video Interleave
Размер файла : 1,37 Гбайт
Продолжительность : 1 ч. 48 м.
Общий поток : 1814 Кбит/сек
Программа кодирования : VirtualDubMod 1.5.4.1 (build 2178/release)
Библиотека кодирования : VirtualDubMod build 2178/release

Видео
Идентификатор : 0
Формат : MPEG-4 Visual
Профиль формата : Advanced Simple@L5
Параметр BVOP формата : 1
Параметр QPel формата : Нет
Параметр GMC формата : Без точки перехода
Параметр матрицы формата : Выборочная
Идентификатор кодека : XVID
Идентификатор кодека/Подсказка : XviD
Продолжительность : 1 ч. 48 м.
Битрейт : 1421 Кбит/сек
Ширина : 688 пикс.
Высота : 512 пикс.
Соотношение сторон : 4:3
Частота кадров : 25,000 кадр/сек
Цветовое пространство : YUV
Подвыборка цветности : 4:2:0
Битовая глубина : 8 бит
Тип развёртки : Прогрессивная
Метод сжатия : С потерями
Бит/(Пиксели*Кадры) : 0.161
Размер потока : 1,07 Гбайт (78%)
Библиотека кодирования : XviD 1.2.0.dev47 (UTC 2006-11-01)

Аудио #1
Идентификатор : 1
Формат : AC-3
Формат/Информация : Audio Coding 3
Расширение режима : CM (complete main)
Идентификатор кодека : 2000
Продолжительность : 1 ч. 48 м.
Вид битрейта : Постоянный
Битрейт : 192 Кбит/сек
Каналы : 1 канал
Расположение каналов : Front: C
Частота : 48,0 КГц
Битовая глубина : 16 бит
Метод сжатия : С потерями
Размер потока : 149 Мбайт (11%)
Выравнивание : Разделение по промежуткам
Продолжительность промежутка : 96 мс. (2,40 видеокадра)
Время предзагрузки промежутка : 96 ms
Язык : Russian

Аудио #2
Идентификатор : 2
Формат : AC-3
Формат/Информация : Audio Coding 3
Расширение режима : CM (complete main)
Идентификатор кодека : 2000
Продолжительность : 1 ч. 48 м.
Вид битрейта : Постоянный
Битрейт : 192 Кбит/сек
Каналы : 2 канала
Расположение каналов : Front: L R
Частота : 48,0 КГц
Битовая глубина : 16 бит
Метод сжатия : С потерями
Размер потока : 149 Мбайт (11%)
Выравнивание : Разделение по промежуткам
Продолжительность промежутка : 96 мс. (2,40 видеокадра)
Время предзагрузки промежутка : 96 ms
Язык : Russian

piratbit.org



Скачать Комиссар полиции обвиняет через торрент http://pic.kartinco.top/images/1/zz3wuyjsb4.jpg Скачать фильм Комиссар полиции обвиняет через торрент бесплантно в хорошем качестве Описание: 1939 год. В королевской Румынии установлена диктатура генерала Антонеску. Легионеры из карательной группировки «Железная ... 9 10 1
Info! Золотая раздача, скачанное не засчитывается.
Торрент: Зарегистрирован [2012-08-03 10:40] · скачан: 36 раз
Статус: √ проверено
Размер: 1.37 GB
Как cкачать? Как скачать Комиссар полиции обвиняет через торрент | qTorrent

% Раздел Тема Автор DL S | L
Классика зарубежного кино [ 1.53 GB ] Комиссар полиции обвиняет / Un Comisar acuza / A Police Inspector Calls [1975 DVDRip ] slaventi-69 Скачать
1 | 0


>> Регистрируемся здесь <<






Отзывы и комментарии о схеме читаем и пишем здесь: ---> Отзывы и комментарии о схеме

Новые благодарочки в телеграм довольных пользователей:
скриншот   скриншот   скриншот   скриншот   скриншот
    Дорогой пользователь! Огромная просьба, поблагодарите релизера, оцените раздачу и оставьте свои комментарий, если Вы скачали Комиссар полиции обвиняет через торрент бесплатно! Внесите свою лепту в развитие PiratBit!
    Комментировать посты могут только пользователи прошедшие не сложную регистрацию
    Показать сообщения:    

    Комиссар полиции обвиняет через торрент
    Скачать бесплатно Комиссар полиции обвиняет
    Комиссар полиции обвиняет скачать торрент
    Комиссар полиции обвиняет смотреть онлайн
    Cкачать фильм Комиссар полиции обвиняет бесплатно
    Комиссар полиции обвиняет скачать торрент в хорошем качестве
    Комиссар полиции обвиняет смотреть онлайн бесплатно в хорошем качестве


    Вы не можете начинать темы
    Вы не можете отвечать на сообщения
    Вы не можете редактировать свои сообщения
    Вы не можете удалять свои сообщения
    Вы не можете голосовать в опросах
    Вы не можете прикреплять файлы к сообщениям
    Вы можете скачивать файлы