Ссылка на приватное зеркало всего за 1$. Внимание количество ограничено!!!

iTunes

iTunes

iTunes

1

iTunes

iTunes

iTunes

iTunes

iTunes

30
pack

Новость дня

ВАЖНО

!!Акция!!

Alien_RageХит недели

RePack

Resident Evil 21

ИГРА 18+

pack

RePack

jed

!!Акция!!

Alien_Rage

RePack

fifa19

RePack

Assassins Creed: Odyssey

RePack

NEED FOR SPEED™ PAYBACK

4 сезон

9 сезон

Бесстыжие 9 сезон

Все сериалы

все сериалы на PB.wtf

RePack

FAR CRY 5
  

Все путем / Everything Must Go (Дэн Раш) [2010 г., Драма, комедия, BD-Remux] / MVO (НТВ+) + VO + Original + SUB (Rus, Eng) piratbit.org

Все путем через торрент piratbit.org

Размер: 16.26 GB | Добавлен: 7 лет 8 мес. назад | Торрент скачан:20 раз
Скачать  

07-08-2012 08:01 Все путем Скачать торрент  

Все путем / Everything Must Go

Год выпуска: 2010
Страна: США / Temple Hill Entertainment, Cowtown Cinema Ventures, Nationlight Productions
Жанр: Драма, комедия
Продолжительность: 01:37:05
Перевод: Профессиональный + Оригинал + Любительский одноголосый
Тип релиза: Лицензия

Режиссер: Дэн Раш

В ролях: Уилл Феррелл, Ребекка Холл, Майкл Пенья, Розали Майклс, Стивен Рут, Лора Дерн, Гленн Хоуертон, Тодд Брайант

Описание: Это история потерявшего работу человека, выставленного из дома собственной женой. Вместе с лузером на лужайке оказывается и все его имущество, которое он пытается распродать за четыре дня.

Качество: BD-Remux
Формат: MKV
Видео кодек: AVC
Аудио кодек: AC3
Видео: AVC, 1920x1080 (16:9), 23.976 fps, 21.3 Mbps (0.428 bit/pixel)
Аудио#1: AC-3, 48.0 KHz, 2 ch, 192 Kbps, CBR (Russian) Одноголосый закадровый - keeper_ukr
Аудио#2: AC-3, 48.0 KHz, 6 ch, 448 Kbps, CBR (Russian) Профессиональный (многоголосый) [НТВ+]
Аудио#3: DTS MA / Core, 48.0 KHz, 6 ch, 1 561 Kbps / 1 510 Kbps, VBR (English)
Субтитры: Русские, английские


General
Unique ID : 244666722849695783134050443772255066472 (0xB81118C76F4935F489F66D9F7F1CD968)
Complete name : D:\Все путем.Blu-Ray.Remux.(1080p).mkv
Format : Matroska
Format version : Version 2
File size : 16.3 GiB
Duration : 1h 37mn
Overall bit rate mode : Variable
Overall bit rate : 24.0 Mbps
Encoded date : UTC 2012-08-06 18:40:28
Writing application : mkvmerge v5.7.0 ('The Whirlwind') built on Jul 8 2012 20:08:51
Writing library : libebml v1.2.3 + libmatroska v1.3.0

Video
ID : 1
Format : AVC
Format/Info : Advanced Video Codec
Format profile : High@L4.1
Format settings, CABAC : Yes
Format settings, ReFrames : 4 frames
Codec ID : V_MPEG4/ISO/AVC
Duration : 1h 37mn
Bit rate mode : Variable
Bit rate : 21.3 Mbps
Maximum bit rate : 39.0 Mbps
Width : 1 920 pixels
Height : 1 080 pixels
Display aspect ratio : 16:9
Frame rate : 23.976 fps
Color space : YUV
Chroma subsampling : 4:2:0
Bit depth : 8 bits
Scan type : Progressive
Bits/(Pixel*Frame) : 0.428
Stream size : 14.4 GiB (89%)
Default : Yes
Forced : No
Color primaries : BT.709-5, BT.1361, IEC 61966-2-4, SMPTE RP177
Transfer characteristics : BT.709-5, BT.1361
Matrix coefficients : BT.709-5, BT.1361, IEC 61966-2-4 709, SMPTE RP177

Audio #1
ID : 2
Format : AC-3
Format/Info : Audio Coding 3
Mode extension : CM (complete main)
Format settings, Endianness : Big
Codec ID : A_AC3
Duration : 1h 37mn
Bit rate mode : Constant
Bit rate : 192 Kbps
Channel(s) : 2 channels
Channel positions : Front: L R
Sampling rate : 48.0 KHz
Bit depth : 16 bits
Compression mode : Lossy
Stream size : 133 MiB (1%)
Title : НТВ+
Language : Russian
Default : Yes
Forced : No

Audio #2
ID : 3
Format : AC-3
Format/Info : Audio Coding 3
Mode extension : CM (complete main)
Format settings, Endianness : Big
Codec ID : A_AC3
Duration : 1h 37mn
Bit rate mode : Constant
Bit rate : 448 Kbps
Channel(s) : 6 channels
Channel positions : Front: L C R, Side: L R, LFE
Sampling rate : 48.0 KHz
Bit depth : 16 bits
Compression mode : Lossy
Stream size : 311 MiB (2%)
Title : keeper_ukr
Language : Russian
Default : No
Forced : No

Audio #3
ID : 4
Format : DTS
Format/Info : Digital Theater Systems
Format profile : MA / Core
Codec ID : A_DTS
Duration : 1h 37mn
Bit rate mode : Variable
Bit rate : 1 561 Kbps / 1 510 Kbps
Channel(s) : 6 channels
Channel positions : Front: L C R, Side: L R, LFE
Sampling rate : 48.0 KHz
Bit depth : 24 bits
Compression mode : Lossless / Lossy
Language : English
Default : No
Forced : No

Text #1
ID : 5
Format : UTF-8
Codec ID : S_TEXT/UTF8
Codec ID/Info : UTF-8 Plain Text
Title : el_brujo
Language : Russian
Default : No
Forced : No

Text #2
ID : 6
Format : UTF-8
Codec ID : S_TEXT/UTF8
Codec ID/Info : UTF-8 Plain Text
Language : English
Default : No
Forced : No

Menu
00:00:00.000 : en:00:00:00.000
00:05:16.608 : en:00:05:16.608
00:10:37.720 : en:00:10:37.720
00:16:09.719 : en:00:16:09.719
00:22:37.773 : en:00:22:37.773
00:28:39.843 : en:00:28:39.843
00:34:50.672 : en:00:34:50.672
00:43:06.959 : en:00:43:06.959
00:50:24.188 : en:00:50:24.188
01:00:29.209 : en:01:00:29.209
01:07:12.070 : en:01:07:12.070
01:14:41.227 : en:01:14:41.227
01:20:14.852 : en:01:20:14.852
01:23:11.069 : en:01:23:11.069
01:28:25.759 : en:01:28:25.759
01:33:39.614 : en:01:33:39.614

piratbit.org



Скачать Все путем через торрент http://imgtag.ru/images/853fc84a8c63422db17f6b5e0.png Скачать фильм Все путем через торрент бесплантно в хорошем качестве Описание: Это история потерявшего работу человека, выставленного из дома собственной женой. Вместе с лузером на лужайке оказывается и все ... 10 10 1
Info! Золотая раздача, скачанное не засчитывается.
Торрент: Зарегистрирован [2012-08-07 08:01] · скачан: 20 раз
Статус: √ проверено
Размер: 16.26 GB
Как cкачать? Как скачать Все путем через торрент | qTorrent

% Раздел Тема Автор DL S | L
Фильмы 2010 [ 1.46 GB ] Всё Путем / Everything Must Go [2010 HDRip Любительский ] PsYcho Скачать
1 | 0
Фильмы 2010 [ 1.46 GB ] Всё путем / Everything Must Go [2010 HDRip] coc900 Скачать
1 | 0

28-11-2019 20:33  

Отключить всю рекламу на сайте

07-08-2012 08:11 Все путем Скачать торрент  

Следующий фильм вышибала В таком качестве piratbit.org



    Дорогой пользователь! Огромная просьба, поблагодарите релизера, оцените раздачу и оставьте свои комментарий, если Вы скачали Все путем через торрент бесплатно! Внесите свою лепту в развитие PiratBit!
    Комментировать посты могут только пользователи прошедшие не сложную регистрацию
    Показать сообщения:    

    Все путем через торрент
    Скачать бесплатно Все путем
    Все путем скачать торрент
    Все путем смотреть онлайн
    Cкачать фильм Все путем бесплатно
    Все путем скачать торрент в хорошем качестве
    Все путем смотреть онлайн бесплатно в хорошем качестве


    Вы не можете начинать темы
    Вы не можете отвечать на сообщения
    Вы не можете редактировать свои сообщения
    Вы не можете удалять свои сообщения
    Вы не можете голосовать в опросах
    Вы не можете прикреплять файлы к сообщениям
    Вы можете скачивать файлы