Достать ножи: Стеклянная луковица

MVO

Добыча

Дубляж

Уэнсдэй

1 сезон

Тор

Дубляж

13 клиническая

1 сезон

Жестокая ночь

MVO

Одни из нас

1 сезон

Deluxe

pack

Рекомендуем

30

Пиратка

ВАЖНО

ВАЖНО

Ghostwire

Пиратка

jed

RePack

nioh2

RePack

RDR2

RePack

NEED FOR SPEED™ PAYBACK

RePack

скачать торрент

Кинопоиск HD

Острые козырьки 6 сезон

6 сезон

FAR CRY 6

RePack

скачать торрент

Лицензия

скачать торрент

MVO

1

1 сезон

скачать торрент

1 сезон

скачать торрент

Лицензия

  

Вышибала / Goon (Майкл Даус) [2011 г., комедия, спорт,BD-Remux, Дубляж + Оригинал+MVO (2 разных голоса) Sub (Russian) ]

Вышибала через торрент piratbit.org

Размер: 24.73 GB | Добавлен: 10 лет назад | Торрент скачан:6 раз
Смотреть онлайн | Скачать | Поддержите нас   

07-08-2012 12:16 Вышибала Скачать торрент  

Вышибала / GoonГод выпуска: 2011
Страна: США / Канада, No Trace Camping / Caramel Film / Don Carmody Productions
Жанр: комедия, спорт
Продолжительность: 01:31:40
Перевод: Дубляж + Оригинал+MVO (2 разных голоса)
Тип релиза: Лицензия

Режиссер: Майкл Даус

В ролях: Шонн Уильям Скотт, Джей Барушель, Лив Шрайбер, Юджин Леви, Элисон Пилл, Марк-Андре Гронден, Ким Коутс, Николас Кэмпбелл, Ричард Кларкин, Джонатан Черри

Описание: Даг — простой вышибала, работающий в провинциальном баре. Однажды, ввязавшись в драку на хоккейном матче с одним из игроков, он попадает в поле зрения тренера команды мастеров. Ему срочно нужен игрок, который сможет защитить на льду ведущего нападающего клуба. Даг не умеет стоять на коньках, но этому можно научиться, зато в драке ему нет равных! У команды-главного конкурента есть свой тафгай, Росс «Босс-Мать-Его» Риа, от одного вида которого дрожит вся хоккейная лига. Дагу и Россу предстоит сойтись в одном матче. Наш герой, с помощью своего друга, делает головокружительную карьеру, сплотив вокруг себя всю команду, и завоевывает любовь самой лучшей девушки на свете. С точки зрения Дага, конечно.

Качество: BD-Remux
Формат: MKV
Видео кодек: AVC
Аудио кодек: DTS
Видео: AVC, 1920x1080 (16:9), 23.976 fps, 32.4 Mbps (0.651 bit/pixel)
Аудио#1: DTS MA / Core, 48.0 KHz, 6 ch, 1 561 Kbps / 1 510 Kbps, VBR (Russian)Профессиональное (одноголосое) [А.Киреев] / [А.Карповский]
Аудио#2: DTS MA / Core, 48.0 KHz, 6 ch, 1 561 Kbps / 1 510 Kbps, VBR (Russian)Дубляж
Аудио#3: DTS MA / Core, 48.0 KHz, 6 ch, 1 561 Kbps / 1 510 Kbps, VBR (English)
Аудио#4: AC-3, 48.0 KHz, 2 ch, 224 Kbps, CBR (English)
Субтитры: Russian


General
Unique ID : 253934643807972950396041913117834332669 (0xBF0A088FB389F612ACF0A4DAAC61C9FD)
Complete name : D:\Goon.mkv
Format : Matroska
Format version : Version 2
File size : 24.7 GiB
Duration : 1h 32mn
Overall bit rate mode : Variable
Overall bit rate : 38.4 Mbps
Movie name : -Talian-
Encoded date : UTC 2012-07-22 16:38:37
Writing application : mkvmerge v5.3.0 ('I could have danced') built on Feb 9 2012 10:38:07
Writing library : libebml v1.2.3 + libmatroska v1.3.0

Video
ID : 1
Format : AVC
Format/Info : Advanced Video Codec
Format profile : High@L4.1
Format settings, CABAC : Yes
Format settings, ReFrames : 4 frames
Codec ID : V_MPEG4/ISO/AVC
Duration : 1h 32mn
Bit rate mode : Variable
Bit rate : 32.4 Mbps
Maximum bit rate : 33.0 Mbps
Width : 1 920 pixels
Height : 1 080 pixels
Display aspect ratio : 16:9
Frame rate : 23.976 fps
Color space : YUV
Chroma subsampling : 4:2:0
Bit depth : 8 bits
Scan type : Progressive
Bits/(Pixel*Frame) : 0.651
Stream size : 20.8 GiB (84%)
Title : Goon (2011) 1080p BD-Remux
Language : English
Default : No
Forced : No

Audio #1
ID : 2
Format : DTS
Format/Info : Digital Theater Systems
Format profile : MA / Core
Codec ID : A_DTS
Duration : 1h 32mn
Bit rate mode : Variable
Bit rate : 1 561 Kbps / 1 510 Kbps
Channel(s) : 6 channels
Channel positions : Front: L C R, Side: L R, LFE
Sampling rate : 48.0 KHz
Bit depth : 16 bits
Compression mode : Lossless / Lossy
Title : Дубляж-Blu-ray
Language : Russian
Default : Yes
Forced : No

Audio #2
ID : 3
Format : DTS
Format/Info : Digital Theater Systems
Format profile : MA / Core
Codec ID : A_DTS
Duration : 1h 32mn
Bit rate mode : Variable
Bit rate : 1 561 Kbps / 1 510 Kbps
Channel(s) : 6 channels
Channel positions : Front: L C R, Side: L R, LFE
Sampling rate : 48.0 KHz
Bit depth : 24 bits
Compression mode : Lossless / Lossy
Title : VO- А.Киреев
Language : Russian
Default : No
Forced : No

Audio #3
ID : 4
Format : AC-3
Format/Info : Audio Coding 3
Mode extension : CM (complete main)
Format settings, Endianness : Big
Codec ID : A_AC3
Duration : 1h 32mn
Bit rate mode : Constant
Bit rate : 384 Kbps
Channel(s) : 6 channels
Channel positions : Front: L C R, Side: L R, LFE
Sampling rate : 48.0 KHz
Bit depth : 16 bits
Compression mode : Lossy
Stream size : 253 MiB (1%)
Title : VO- А.Карповский
Language : Russian
Default : No
Forced : No

Audio #4
ID : 5
Format : DTS
Format/Info : Digital Theater Systems
Format profile : MA / Core
Codec ID : A_DTS
Duration : 1h 32mn
Bit rate mode : Variable
Bit rate : 1 561 Kbps / 1 510 Kbps
Channel(s) : 6 channels
Channel positions : Front: L C R, Side: L R, LFE
Sampling rate : 48.0 KHz
Bit depth : 24 bits
Compression mode : Lossless / Lossy
Title : Original
Language : English
Default : No
Forced : No

Audio #5
ID : 6
Format : AC-3
Format/Info : Audio Coding 3
Mode extension : CM (complete main)
Format settings, Endianness : Big
Codec ID : A_AC3
Duration : 1h 32mn
Bit rate mode : Constant
Bit rate : 224 Kbps
Channel(s) : 2 channels
Channel positions : Front: L R
Sampling rate : 48.0 KHz
Bit depth : 16 bits
Compression mode : Lossy
Stream size : 148 MiB (1%)
Title : Commentary
Language : English
Default : No
Forced : No

Text #1
ID : 7
Format : UTF-8
Codec ID : S_TEXT/UTF8
Codec ID/Info : UTF-8 Plain Text
Title : Sub-voronine
Language : Russian
Default : No
Forced : No

Text #2
ID : 8
Format : UTF-8
Codec ID : S_TEXT/UTF8
Codec ID/Info : UTF-8 Plain Text
Title : Sub-ak79
Language : Russian
Default : No
Forced : No

Menu
00:00:00.000 : :00:00:00.000
00:08:57.328 : :00:08:57.328
00:18:21.684 : :00:18:21.684
00:26:14.531 : :00:26:14.531
00:33:15.827 : :00:33:15.827
00:39:38.626 : :00:39:38.626
00:45:53.292 : :00:45:53.292
00:50:05.336 : :00:50:05.336
00:56:19.543 : :00:56:19.543
01:04:42.837 : :01:04:42.837
01:09:50.186 : :01:09:50.186
01:15:22.685 : :01:15:22.685
01:19:53.789 : :01:19:53.789
01:25:25.620 : :01:25:25.620




Скачать Вышибала через торрент http://imgtag.ru/images/393sRarT8.png Скачать, смотреть онлайн Вышибала бесплантно в хорошем качестве Описание: Даг — простой вышибала, работающий в провинциальном баре. Однажды, ввязавшись в драку на хоккейном матче с одним из игроков, он ... 10 10 3
Info! Золотая раздача, скачанное не засчитывается.
Торрент: Зарегистрирован [2012-08-07 12:16] · скачан: 6 раз
Статус: √ проверено
Размер: 24.73 GB
Как cкачать? Как скачать Вышибала через торрент | UTorrent

% Раздел Тема Автор DL S | L
Фильмы [HD 720p, 1080p] (Хороший звук DUB, MVO) [ 10.25 GB ] Вышибала / Goon | DUB | 1080p ~Relizer~ Скачать
1 | 0
Фильмы [HD 720p, 1080p] (Хороший звук DUB, MVO) [ 4.25 GB ] Вышибала / Goon | DUB | 720p bober100 Скачать
1 | 0
Фильмы 2011 [ 1.46 GB ] Вышибала / Goon | DUB |лицензия| | BDRip-AVC potroks Скачать
1 | 0
Фильмы 2011 [ 2.18 GB ] Вышибала / Goon | | BDRip-AVC, Профессиональный (дублированный 4eJLoJ3ek Скачать
1 | 0



Последний раз редактировалось: AlexKa (2012-08-07 12:28), всего редактировалось 1 раз

28-11-2019 20:33  


Отключить вcю реклaмy на сайте, в т.ч. и в плеере онлайн просмотра!

07-08-2012 12:25 Вышибала Скачать торрент  

Следующий фильм В компании мужчин



09-08-2012 13:23 Вышибала Скачать торрент  

Скот здесь такой телепень



    Дорогой пользователь! Огромная просьба, поблагодарите релизера, оцените раздачу и оставьте свои комментарий, если Вы скачали Вышибала через торрент бесплатно!!
    Комментировать посты могут только пользователи прошедшие не сложную регистрацию
    Показать сообщения:    


    Вышибала через торрент
    Скачать бесплатно Вышибала
    Вышибала скачать торрент
    Вышибала смотреть онлайн
    Cкачать фильм Вышибала бесплатно
    Вышибала скачать торрент в хорошем качестве
    Вышибала смотреть онлайн бесплатно в хорошем качестве
    Вы не можете начинать темы
    Вы не можете отвечать на сообщения
    Вы не можете редактировать свои сообщения
    Вы не можете удалять свои сообщения
    Вы не можете голосовать в опросах
    Вы не можете прикреплять файлы к сообщениям
    Вы можете скачивать файлы
    Вышибала / Goon [2011 г., комедия, спорт,BD-Remux, Дубляж + Оригинал+MVO Sub ] смотреть онлайн, скачать торрент picoco.icu