Ссылка на приватное зеркало нашего сайта всего за 1$. Внимание количество ограничено!!!

2 сезон

iTunes

iTunes

1

iTunes

iTunes

iTunes

WEBRip

iTunes

30
pack

Новость дня

ВАЖНО

!!Акция!!

Alien_RageХит недели

RePack

Horizon Zero Dawn

ИГРА 18+

pack

RePack

jed

!!Акция!!

Alien_Rage

RePack

fifa19

RePack

Assassins Creed: Odyssey

RePack

NEED FOR SPEED™ PAYBACK

4 сезон

9 сезон

Бесстыжие 9 сезон

Все сериалы

все сериалы на PB.wtf

RePack

FAR CRY 5
  

Темный этаж / Dark Floors (Пете Риски) [2008 г., ужасы, фэнтези, HDRip, Профессиональный (многоголосый) (лицензия)] piratbit.org

Темный этаж через торрент piratbit.org

Размер: 1.36 GB | Добавлен: 8 лет 1 мес. назад | Торрент скачан:396 раз
Скачать  

10-08-2012 07:58 Темный этаж Скачать торрент  

Темный этаж / Dark Floors

Год выпуска: 2008
Страна: Финляндия, Исландия
Жанр: ужасы, фэнтези
Продолжительность: 01:21:44
Перевод: Профессиональный (многоголосый) (Лицензия)
Тип релиза: Лицензия

Режиссер: Пете Риски

В ролях: Уильям Хоуп, Леон Херберт, Рональд Пикап, Филип Брезертон, Ной Хантли, Доминик МакЭллигот, Скай Беннетт, Лорди, Кита, Амен

Описание: Сара — маленькая девочка, страдающая аутизмом. Ее отец, не видя никаких улучшений в здоровье дочери, решает забрать девочку из больницы. Однако покинуть стены госпиталя им не суждено — неожиданно лифт, в котором они спускаются к выходу, ломается, и Сара вместе с отцом и другими пассажирами оказывается в ловушке. Но это только начало кошмара.

Когда двери лифта откроются, их ждет настоящий ужас — существа из потустороннего мира, жертвами которых уже стали множество пациентов больницы, не пощадят никого. Единственным человеком, способным спасти несчастных, оказывается Сара…

Доп. информация: http://www.kinopoisk.ru/level/1/film/373088/

Качество: HDRip
Формат: AVI
Видео кодек: XviD
Аудио кодек: AC3
Видео: 720x304 (2.37:1), 25 fps, XviD build 50 ~1979 kbps avg, 0.36 bit/pixel
Аудио#1: 48 kHz, AC3 Dolby Digital, 3/2 (L,C,R,l,r) + LFE ch, ~384 kbps
Релиз от: R.G.FilmoGraphia



General
Complete name : D:\Video\Films\_upd\Dark_Floors_Klayd X.avi
Format : AVI
Format/Info : Audio Video Interleave
File size : 1.36 GiB
Duration : 1h 21mn
Overall bit rate : 2 373 Kbps
Writing application : VirtualDubMod 1.5.10.2 (build 2540/release)
Writing library : VirtualDubMod build 2540/release

Video
ID : 0
Format : MPEG-4 Visual
Format profile : Advanced Simple@L5
Format settings, BVOP : 4
Format settings, QPel : No
Format settings, GMC : No warppoints
Format settings, Matrix : Default (MPEG)
Codec ID : XVID
Codec ID/Hint : XviD
Duration : 1h 21mn
Bit rate : 1 980 Kbps
Width : 720 pixels
Height : 304 pixels
Display aspect ratio : 2.35:1
Frame rate : 25.000 fps
Color space : YUV
Chroma subsampling : 4:2:0
Bit depth : 8 bits
Scan type : Progressive
Compression mode : Lossy
Bits/(Pixel*Frame) : 0.362
Stream size : 1.13 GiB (83%)
Writing library : XviD 1.2.1 (UTC 2008-12-04)

Audio
ID : 1
Format : AC-3
Format/Info : Audio Coding 3
Mode extension : CM (complete main)
Codec ID : 2000
Duration : 1h 21mn
Bit rate mode : Constant
Bit rate : 384 Kbps
Channel(s) : 6 channels
Channel positions : Front: L C R, Side: L R, LFE
Sampling rate : 48.0 KHz
Bit depth : 16 bits
Compression mode : Lossy
Stream size : 224 MiB (16%)
Alignment : Split accross interleaves
Interleave, duration : 40 ms (1.00 video frame)
Interleave, preload duration : 500 ms

piratbit.org



Скачать Темный этаж через торрент http://pic.kartinco.top/images/1/66n5iblkro.jpg Скачать фильм Темный этаж через торрент бесплантно в хорошем качестве Описание: Сара — маленькая девочка, страдающая аутизмом. Ее отец, не видя никаких улучшений в здоровье дочери, решает забрать девочку из ... 10 10 2
Info! Золотая раздача, скачанное не засчитывается.
Торрент: Зарегистрирован [2012-08-10 07:58] · скачан: 396 раз
Статус: √ проверено
Размер: 1.36 GB
Как cкачать? Как скачать Темный этаж через торрент | qTorrent

% Раздел Тема Автор DL S | L
Фильмы 2006-2008 [ 1.53 GB ] Темный этаж / Dark Floors [2008 ... HDRip] kycher1972 Скачать
1 | 0


Последний раз редактировалось: Azot258 (2012-08-10 08:43), всего редактировалось 2 раз(а)

28-11-2019 20:33  

Отключить всю рекламу на сайте

10-08-2012 08:18 Темный этаж Скачать торрент  

Azot258
Перезалейте Постр и Скриншоты на рекомендуемые хостинги.
Например: http://pic.kartinco.top/
piratbit.org



10-08-2012 08:53 Темный этаж Скачать торрент  

Можно глянуть,местами даж хорошpiratbit.org



10-08-2012 09:45 Темный этаж Скачать торрент  

в жанры забыли добавить, что это "комедия" - монстры очень уж колоритныеpiratbit.org



10-08-2012 10:08 Темный этаж Скачать торрент  

АААпомню не стал смотреть) LORDI там Металл группа в главныхролях ШЛАК)piratbit.org



11-08-2012 04:33 Темный этаж Скачать торрент  

малеха разделом ошибся год та 2008piratbit.org



12-08-2012 11:36 Темный этаж Скачать торрент  

бред сивой кобылы !!! да еще у девочки голос противный !!!piratbit.org



    Дорогой пользователь! Огромная просьба, поблагодарите релизера, оцените раздачу и оставьте свои комментарий, если Вы скачали Темный этаж через торрент бесплатно! Внесите свою лепту в развитие PiratBit!
    Комментировать посты могут только пользователи прошедшие не сложную регистрацию
    Показать сообщения:    

    Темный этаж через торрент
    Скачать бесплатно Темный этаж
    Темный этаж скачать торрент
    Темный этаж смотреть онлайн
    Cкачать фильм Темный этаж бесплатно
    Темный этаж скачать торрент в хорошем качестве
    Темный этаж смотреть онлайн бесплатно в хорошем качестве


    Вы не можете начинать темы
    Вы не можете отвечать на сообщения
    Вы не можете редактировать свои сообщения
    Вы не можете удалять свои сообщения
    Вы не можете голосовать в опросах
    Вы не можете прикреплять файлы к сообщениям
    Вы можете скачивать файлы