Marvel's Avengers Deluxe Edition (супер цена) 159р. Внимание количество ограничено!!!

2 сезон

iTunes

iTunes

1

iTunes

iTunes

iTunes

WEBRip

iTunes

30
pack

Новость дня

ВАЖНО

!!Акция!!

Alien_RageХит недели

RePack

Horizon Zero Dawn

ИГРА 18+

pack

RePack

jed

!!Акция!!

Alien_Rage

RePack

fifa19

RePack

Assassins Creed: Odyssey

RePack

NEED FOR SPEED™ PAYBACK

4 сезон

9 сезон

Бесстыжие 9 сезон

Все сериалы

все сериалы на PB.wtf

RePack

FAR CRY 5
  

Паства / The Flock (Вэй Кеунг Лау, Нильс Мюллер) [2007 г., триллер, драма, криминал, детектив, BDRip, DUB (лицензия)] piratbit.org

Паства через торрент piratbit.org

Размер: 1.45 GB | Добавлен: 8 лет 1 мес. назад | Торрент скачан:105 раз
Скачать  

12-08-2012 10:01 Паства Скачать торрент  

Паства / The Flock

Год выпуска: 2007
Страна: США
Жанр: триллер, драма, криминал, детектив
Продолжительность: 01:45:07
Перевод: Дубляж (Лицензия)

Режиссер: Вэй Кеунг Лау, Нильс Мюллер

Премьера в мире: 4 августа 2007



В ролях: Ричард Гир, Клер Дэйнс, Кэди Стриклэнд, Рэй Уайз, Расселл Сэмс, Аврил Лавин, Кристина Сиско, Дуэйн Л. Барнс, Мэтт Шульц, Дебрианна Мансини

Описание: До выхода на пенсию Эрролу осталось всего восемнадцать дней, но нераскрытое дело о похищении семнадцатилетней девушки не дает ему спокойно спать. У него есть неопытная напарница и смутные подозрения, что в преступлении виновен один из находящихся под его надзором насильников. Хватит ли Эрролу двух с половиной недель, чтобы раскрыть дело?

Качество: BDRip
Формат: AVI
Видео кодек: XviD
Аудио кодек: AC3
Видео: 720x304 (2.35:1), 24 fps, 1518 kbps, 0.289 bit/pixel
Аудио: 48 kHz, AC3 5.1, 448.00 kbps


Общее
Полное имя : D:\Раздачи\The Flock.2007.BDRip.avi
Формат : AVI
Формат/Информация : Audio Video Interleave
Размер файла : 1,45 Гбайт
Продолжительность : 1 ч. 45 м.
Общий поток : 1975 Кбит/сек
Название фильма : Паства / The Flock (2007) BDRip
Библиотека кодирования : VirtualDub build 34703/release
Правообладатель : rip by Rulya74

Видео
Идентификатор : 0
Формат : MPEG-4 Visual
Профиль формата : Advanced Simple@L5
Параметр BVOP формата : 1
Параметр QPel формата : Нет
Параметр GMC формата : Без точки перехода
Параметр матрицы формата : Default (MPEG)
Идентификатор кодека : XVID
Идентификатор кодека/Подсказка : XviD
Продолжительность : 1 ч. 45 м.
Битрейт : 1518 Кбит/сек
Ширина : 720 пикселей
Высота : 304 пикселя
Соотношение сторон : 2,35:1
Частота кадров : 24,000 кадра/сек
Цветовое пространство : YUV
Субдискретизация насыщенности : 4:2:0
Битовая глубина : 8 бит
Тип развёртки : Прогрессивная
Метод сжатия : С потерями
Бит/(Пиксели*Кадры) : 0.289
Размер потока : 1,11 Гбайт (77%)
Библиотека кодирования : XviD 1.2.1 (UTC 2008-12-04)

Аудио
Идентификатор : 1
Формат : AC-3
Формат/Информация : Audio Coding 3
Расширение режима : CM (complete main)
Идентификатор кодека : 2000
Продолжительность : 1 ч. 45 м.
Вид битрейта : Постоянный
Битрейт : 448 Кбит/сек
Каналы : 6 каналов
Расположение каналов : Front: L C R, Side: L R, LFE
Частота : 48,0 КГц
Битовая глубина : 16 бит
Метод сжатия : С потерями
Размер потока : 337 Мбайт (23%)
Выравнивание : Разделение по промежуткам
Продолжительность промежутка : 42 мс. (1,00 видеокадр)
Время предзагрузки промежутка : 500 мс.

piratbit.org



Скачать Паства через торрент http://pic.kartinco.top/images/1/f38srjqx6u.png Скачать фильм Паства через торрент бесплантно в хорошем качестве Описание: До выхода на пенсию Эрролу осталось всего восемнадцать дней, но нераскрытое дело о похищении семнадцатилетней девушки не дает ему ... 5 10 4
Info! Золотая раздача, скачанное не засчитывается.
Торрент: Зарегистрирован [2012-08-12 10:01] · скачан: 105 раз
Статус: √ проверено
Размер: 1.45 GB
Как cкачать? Как скачать Паства через торрент | qTorrent

% Раздел Тема Автор DL S | L
Фильмы 2006-2008 [ 1.46 GB ] Паства / Flock The [2007 BDRip] vadfro Скачать
1 | 0

28-11-2019 20:33  

Отключить всю рекламу на сайте

12-08-2012 10:32 Паства Скачать торрент  

Скорости совсем нет, ну что эт такое?piratbit.org



    Дорогой пользователь! Огромная просьба, поблагодарите релизера, оцените раздачу и оставьте свои комментарий, если Вы скачали Паства через торрент бесплатно! Внесите свою лепту в развитие PiratBit!
    Комментировать посты могут только пользователи прошедшие не сложную регистрацию
    Показать сообщения:    

    Паства через торрент
    Скачать бесплатно Паства
    Паства скачать торрент
    Паства смотреть онлайн
    Cкачать фильм Паства бесплатно
    Паства скачать торрент в хорошем качестве
    Паства смотреть онлайн бесплатно в хорошем качестве


    Вы не можете начинать темы
    Вы не можете отвечать на сообщения
    Вы не можете редактировать свои сообщения
    Вы не можете удалять свои сообщения
    Вы не можете голосовать в опросах
    Вы не можете прикреплять файлы к сообщениям
    Вы можете скачивать файлы