Ссылка на приватное зеркало нашего сайта всего за 1$. Внимание количество ограничено!!!

2 сезон

iTunes

iTunes

1

iTunes

iTunes

iTunes

WEBRip

iTunes

30
pack

Вам бонус

ВАЖНО

!!Акция!!

Alien_RageХит недели

RePack

Horizon Zero Dawn

ИГРА 18+

pack

RePack

jed

!!Акция!!

Alien_Rage

RePack

fifa19

RePack

Assassins Creed: Odyssey

RePack

NEED FOR SPEED™ PAYBACK

4 сезон

9 сезон

Бесстыжие 9 сезон

Все сериалы

все сериалы на PB.wtf

RePack

FAR CRY 5
  

Старикам тут не место / No Country for Old Men (Итэн Коэн, Джоэл Коэн) [2007 г., триллер, драма, криминал, BDRip, DUB (лицензия)] piratbit.org

Старикам тут не место через торрент piratbit.org

Раздают: 1 [ 0 KB/s ]
Размер: 2.17 GB | Добавлен: 8 лет 1 мес. назад | Торрент скачан:561 раз
Скачать  

12-08-2012 15:48 Старикам тут не место Скачать торрент  

Старикам тут не место / No Country for Old Men Год выпуска: 2007
Страна: США
Жанр: триллер, драма, криминал
Продолжительность: 02:02:10
Перевод: Дубляж (Лицензия)
Тип релиза: лицензия

Режиссер: Итэн Коэн, Джоэл Коэн

http://www.imdb.com/title/tt0477348/
http://www.kinopoisk.ru/film/195434/

В ролях: Томми Ли Джонс, Хавьер Бардем, Джош Бролин, Вуди Харрельсон, Келли Макдоналд, Гаррет Диллахант, Тесс Харпер, Бэрри Корбин, Стивен Рут, Роджер Бойс

Описание: Обычный работяга обнаруживает в пустыне гору трупов, грузовик, набитый героином, и соблазнительную сумму в два миллиона долларов наличными. Он решает взять деньги себе, и результатом становится волна насилия, которую не может остановить вся полиция Западного Техаса.

Качество: BDRip [No Country for Old Men 2007 Bluray 1080p Remux AVC LPCM 5 1 BluHD]
Формат: AVI
Видео кодек: XviD
Аудио кодек: AC3
Видео: 720x304 (2.35:1), 23.976 fps, 2084 kbps
Аудио#1: AC3 5.1, 448 kbps, 48.0 KHz
Релиз от: Ripodelnia

General
Complete name : D:\Video\Movies\Releases\No.Country.For.Old.Men.2007.BDRip.XviD.Rus.D.Ripodelnia.avi
Format : AVI
Format/Info : Audio Video Interleave
Format profile : OpenDML
File size : 2.17 GiB
Duration : 2h 2mn
Overall bit rate : 2 545 Kbps
Writing application : VirtualDubMod 1.5.10.2 (build 2542/release)
Writing library : VirtualDubMod build 2542/release

Video
ID : 0
Format : MPEG-4 Visual
Format profile : Advanced Simple@L5
Format settings, BVOP : 1
Format settings, QPel : No
Format settings, GMC : No warppoints
Format settings, Matrix : Custom
Muxing mode : Packed bitstream
Codec ID : XVID
Codec ID/Hint : XviD
Duration : 2h 2mn
Bit rate : 2 085 Kbps
Width : 720 pixels
Height : 304 pixels
Display aspect ratio : 2.35:1
Frame rate : 23.976 fps
Color space : YUV
Chroma subsampling : 4:2:0
Bit depth : 8 bits
Scan type : Progressive
Compression mode : Lossy
Bits/(Pixel*Frame) : 0.397
Stream size : 1.78 GiB (82%)
Writing library : XviD 64

Audio
ID : 1
Format : AC-3
Format/Info : Audio Coding 3
Mode extension : CM (complete main)
Format settings, Endianness : Big
Codec ID : 2000
Duration : 2h 2mn
Bit rate mode : Constant
Bit rate : 448 Kbps
Channel(s) : 6 channels
Channel positions : Front: L C R, Side: L R, LFE
Sampling rate : 48.0 KHz
Bit depth : 16 bits
Compression mode : Lossy
Stream size : 391 MiB (18%)
Alignment : Split accross interleaves
Interleave, duration : 42 ms (1.00 video frame)
Interleave, preload duration : 500 ms

piratbit.org



Скачать Старикам тут не место через торрент http://pic.kartinco.top/images/1/38b2zkxt29.jpg Скачать фильм Старикам тут не место через торрент бесплантно в хорошем качестве Описание: Обычный работяга обнаруживает в пустыне гору трупов, грузовик, набитый героином, и соблазнительную сумму в два миллиона долларов ... 10 10 17
Info! Золотая раздача, скачанное не засчитывается.
Торрент: Зарегистрирован [2012-08-12 15:48] · скачан: 561 раз
Статус: √ проверено
Размер: 2.17 GB
Как cкачать? Как скачать Старикам тут не место через торрент | qTorrent

% Раздел Тема Автор DL S | L
Фильмы [HD 720p, 1080p] (Хороший звук DUB, MVO) [ 4.61 GB ] Старикам тут не место / No Country for Old Men [2007 BDRip 1080p-HEVC 10bit Авторский ] ADVOKAT69 Скачать
2 | 0
Фильмы 2006-2008 [ 1.46 GB ] Старикам тут не место / No Country for Old Men [2007 HDRip] Franz Скачать
2 | 0
Фильмы [HD 720p, 1080p] (Хороший звук DUB, MVO) [ 8.21 GB ] Старикам тут не место / No Country for Old Men [2007 BDRip 1080р] smaster Скачать
2 | 0
Фильмы 2006-2008 [ 2.78 GB ] Старикам тут не место / No Country for Old Men [2007 BDRip-AVC] -=BIGBOSS=- Скачать
1 | 0
Фильмы 2006-2008 [ 1.8 GB ] Старикам тут не место / No Country for Old Men [2007 HDRip] Андрей1060 Скачать
1 | 0

28-11-2019 20:33  

Отключить всю рекламу на сайте

12-08-2012 15:51 Старикам тут не место Скачать торрент  

Прикольнёмpiratbit.org



12-08-2012 16:54 Старикам тут не место Скачать торрент  

очень хороший фильмpiratbit.org



12-08-2012 21:15 Старикам тут не место Скачать торрент  

фильм классный
спасибо бро)))piratbit.org



12-08-2012 21:25 Старикам тут не место Скачать торрент  

Охереееееееный фильм! :good2:piratbit.org



    Дорогой пользователь! Огромная просьба, поблагодарите релизера, оцените раздачу и оставьте свои комментарий, если Вы скачали Старикам тут не место через торрент бесплатно! Внесите свою лепту в развитие PiratBit!
    Комментировать посты могут только пользователи прошедшие не сложную регистрацию
    Показать сообщения:    

    Старикам тут не место через торрент
    Скачать бесплатно Старикам тут не место
    Старикам тут не место скачать торрент
    Старикам тут не место смотреть онлайн
    Cкачать фильм Старикам тут не место бесплатно
    Старикам тут не место скачать торрент в хорошем качестве
    Старикам тут не место смотреть онлайн бесплатно в хорошем качестве


    Вы не можете начинать темы
    Вы не можете отвечать на сообщения
    Вы не можете редактировать свои сообщения
    Вы не можете удалять свои сообщения
    Вы не можете голосовать в опросах
    Вы не можете прикреплять файлы к сообщениям
    Вы можете скачивать файлы