Достать ножи: Стеклянная луковица

MVO

Добыча

Дубляж

Уэнсдэй

1 сезон

Тор

Дубляж

13 клиническая

1 сезон

Жестокая ночь

MVO

Одни из нас

1 сезон

Deluxe

pack

Рекомендуем

30

Пиратка

ВАЖНО

ВАЖНО

Ghostwire

Пиратка

jed

RePack

nioh2

RePack

RDR2

RePack

NEED FOR SPEED™ PAYBACK

RePack

скачать торрент

Кинопоиск HD

Острые козырьки 6 сезон

6 сезон

FAR CRY 6

RePack

скачать торрент

Лицензия

скачать торрент

MVO

1

1 сезон

скачать торрент

1 сезон

скачать торрент

Лицензия

  

Вечерний экспресс «Сансет Лимитед» / The Sunset Limited (Томми Ли Джонс / Tommy Lee Jones) [2011 г., Драма, BDRemux, DVO]

Вечерний экспресс «Сансет Лимитед» через торрент piratbit.org

Размер: 18.96 GB | Добавлен: 10 лет назад | Торрент скачан:0 раз
Смотреть онлайн | Скачать | Поддержите нас   

17-08-2012 08:35 Вечерний экспресс «Сансет Лимитед» Скачать торрент  

Вечерний экспресс «Сансет Лимитед» / The Sunset Limited

Год выпуска: 2011
Страна: США
Жанр: Драма
Продолжительность: 01:30:55
Перевод: Профессиональный (двухголосый) + Одноголосый (2 вида) + Оригинл

Режиссер: Томми Ли Джонс / Tommy Lee Jones

В ролях: Сэмюэл Л. Джексон, Томми Ли Джонс

Описание: Фильм расскажет о человеке, который спасает другого от броска под поезд в Гарлеме. Двое людей с разным прошлым начинают после этого общаться и обмениваться идеологиями относительно того, насколько важна в принципе человеческая жизнь.

Качество: BDRemux
Формат: MKV
Видео кодек: MPEG-4 AVC/H.264
Аудио кодек: AC-3, DTS-HD MA, DTS
Видео: 1920x1080, 23.976 fps, ~25,0 mb/s
Аудио#1: Русский, AC-3, 192 kbps, 2 канала, 16 bit, (L, R) - Двухголосый (Elrom)
Аудио#2: Русский, DTS-HD MA, 5.1, 48 kHz, 1765 kbps, 24 bit, 6 каналов, (DTS Core: 5.1, 48 kHz, 1509 kbps, 24 bit, 6 каналов) - (L, C, R, l, r) + LFE - Одноголосый (Ю. Сербин)
Аудио#3: Русский, DTS, 755 kbps, 6 каналов, 24 bit, (L, C, R, l, r) + LFE) - Одноголосый (А. Артемьев)
Аудио#4: Английский, DTS, 1510 kbps, 6 каналов, 24 bit, (L, C, R, l, r) + LFE - Оригинал

Язык субтитров: Русские
Вид субтитров: Вшитые, отключаемые


Формат : Matroska
Версия формата : Version 2
Размер файла : 19,0 Гбайт
Продолжительность : 1 ч. 30 м.
Режим общего битрейта : Переменный
Общий поток : 29,9 Мбит/сек
Дата кодирования : UTC 2012-08-13 15:13:30
Программа кодирования : mkvmerge v3.4.0 ('Rapunzel') сборка от May 15 2010 09:38:20
Библиотека кодирования : libebml v0.8.0 + libmatroska v0.9.0

Видео
Идентификатор : 1
Формат : AVC
Формат/Информация : Advanced Video Codec
Профиль формата : High@L4.1
Параметр CABAC формата : Да
Параметр ReFrames формата : 4 кадра
Режим смешивания : Container profile=Unknown@0.0
Идентификатор кодека : V_MPEG4/ISO/AVC
Продолжительность : 1 ч. 30 м.
Вид битрейта : Переменный
Битрейт : 25,0 Мбит/сек
Максимальный битрейт : 38,0 Мбит/сек
Ширина : 1920 пикселей
Высота : 1080 пикселей
Соотношение сторон : 16:9
Частота кадров : 23,976 кадра/сек
Цветовое пространство : YUV
Субдискретизация насыщенности : 4:2:0
Битовая глубина : 8 бит
Тип развёртки : Прогрессивная
Бит/(Пиксели*Кадры) : 0.504
Размер потока : 15,9 Гбайт (84%)
Язык : English
Default : Нет
Forced : Нет

Аудио #1
Идентификатор : 2
Формат : AC-3
Формат/Информация : Audio Coding 3
Расширение режима : CM (complete main)
Идентификатор кодека : A_AC3
Продолжительность : 1 ч. 30 м.
Вид битрейта : Постоянный
Битрейт : 192 Кбит/сек
Каналы : 2 канала
Расположение каналов : Front: L R
Частота : 48,0 КГц
Битовая глубина : 16 бит
Метод сжатия : С потерями
Размер потока : 125 Мбайт (1%)
Заголовок : [Elrom]
Язык : Russian
Default : Да
Forced : Нет

Аудио #2
Идентификатор : 3
Формат : DTS
Формат/Информация : Digital Theater Systems
Профиль формата : MA / Core
Идентификатор кодека : A_DTS
Продолжительность : 1 ч. 30 м.
Вид битрейта : Переменный
Битрейт : 1765 Кбит/сек / 1510 Кбит/сек
Каналы : 6 каналов
Расположение каналов : Front: L C R, Side: L R, LFE
Частота : 48,0 КГц
Битовая глубина : 24 бит
Метод сжатия : Без потерь / Lossy
Заголовок : [ Ю. Сербин]
Язык : Russian
Default : Нет
Forced : Нет

Аудио #3
Идентификатор : 4
Формат : DTS
Формат/Информация : Digital Theater Systems
Идентификатор кодека : A_DTS
Продолжительность : 1 ч. 30 м.
Вид битрейта : Постоянный
Битрейт : 755 Кбит/сек
Каналы : 6 каналов
Расположение каналов : Front: L C R, Side: L R, LFE
Частота : 48,0 КГц
Битовая глубина : 24 бит
Метод сжатия : С потерями
Задержка видео : 11 мс.
Размер потока : 491 Мбайт (3%)
Заголовок : [А. Артемьев]
Язык : Russian
Default : Нет
Forced : Нет

Аудио #4
Идентификатор : 5
Формат : DTS
Формат/Информация : Digital Theater Systems
Идентификатор кодека : A_DTS
Продолжительность : 1 ч. 30 м.
Вид битрейта : Постоянный
Битрейт : 1510 Кбит/сек
Каналы : 6 каналов
Расположение каналов : Front: L C R, Side: L R, LFE
Частота : 48,0 КГц
Битовая глубина : 24 бит
Метод сжатия : С потерями
Задержка видео : 11 мс.
Размер потока : 982 Мбайт (5%)
Язык : English
Default : Нет
Forced : Нет

Текст
Идентификатор : 6
Формат : UTF-8
Идентификатор кодека : S_TEXT/UTF8
Идентификатор кодека/Информация : UTF-8 Plain Text
Язык : Russian
Default : Нет
Forced : Нет

Меню
00:00:00.000 : en:00:00:00.000
00:07:57.686 : en:00:07:57.686
00:15:35.184 : en:00:15:35.184
00:24:07.321 : en:00:24:07.321
00:33:18.663 : en:00:33:18.663
00:41:11.094 : en:00:41:11.094
00:48:52.346 : en:00:48:52.346
00:55:55.310 : en:00:55:55.310
01:01:50.373 : en:01:01:50.373
01:11:12.602 : en:01:11:12.602
01:18:16.025 : en:01:18:16.025
01:26:39.111 : en:01:26:39.111




Скачать Вечерний экспресс «Сансет Лимитед» через торрент http://imgtag.ru/images/1832a69ea127167086281add1.jpg Скачать, смотреть онлайн Вечерний экспресс «Сансет Лимитед» бесплантно в хорошем качестве Описание: Фильм расскажет о человеке, который спасает другого от броска под поезд в Гарлеме. Двое людей с разным прошлым начинают после ... 10 10 1
Info! Золотая раздача, скачанное не засчитывается.
Торрент: Зарегистрирован [2012-08-17 08:35] · скачан: 0 раз
Статус: √ проверено
Размер: 18.96 GB
Как cкачать? Как скачать Вечерний экспресс «Сансет Лимитед» через торрент | UTorrent

28-11-2019 20:33  


Отключить вcю реклaмy на сайте, в т.ч. и в плеере онлайн просмотра!

17-08-2012 09:28 Вечерний экспресс «Сансет Лимитед» Скачать торрент  

Муть похоже



17-08-2012 14:02 Вечерний экспресс «Сансет Лимитед» Скачать торрент  

Фильм не для всех. Кто способен выдержать полуторачасовой диалог о религии между фанатиком и атеистом, то пусть смотрит) я, лично, не пожалел, что потратил на него время)



    Дорогой пользователь! Огромная просьба, поблагодарите релизера, оцените раздачу и оставьте свои комментарий, если Вы скачали Вечерний экспресс «Сансет Лимитед» через торрент бесплатно!!
    Комментировать посты могут только пользователи прошедшие не сложную регистрацию
    Показать сообщения:    


    Вечерний экспресс «Сансет Лимитед» через торрент
    Скачать бесплатно Вечерний экспресс «Сансет Лимитед»
    Вечерний экспресс «Сансет Лимитед» скачать торрент
    Вечерний экспресс «Сансет Лимитед» смотреть онлайн
    Cкачать фильм Вечерний экспресс «Сансет Лимитед» бесплатно
    Вечерний экспресс «Сансет Лимитед» скачать торрент в хорошем качестве
    Вечерний экспресс «Сансет Лимитед» смотреть онлайн бесплатно в хорошем качестве
    Вы не можете начинать темы
    Вы не можете отвечать на сообщения
    Вы не можете редактировать свои сообщения
    Вы не можете удалять свои сообщения
    Вы не можете голосовать в опросах
    Вы не можете прикреплять файлы к сообщениям
    Вы можете скачивать файлы
    Вечерний экспресс «Сансет Лимитед» / The Sunset Limited [2011 г., Драма, BDRemux, DVO] смотреть онлайн, скачать торрент picoco.icu