Достать ножи: Стеклянная луковица

MVO

Добыча

Дубляж

Уэнсдэй

1 сезон

Тор

Дубляж

13 клиническая

1 сезон

Жестокая ночь

MVO

Одни из нас

1 сезон

Deluxe

pack

Рекомендуем

30

Пиратка

ВАЖНО

ВАЖНО

Ghostwire

Пиратка

jed

RePack

nioh2

RePack

RDR2

RePack

NEED FOR SPEED™ PAYBACK

RePack

скачать торрент

Кинопоиск HD

Острые козырьки 6 сезон

6 сезон

FAR CRY 6

RePack

скачать торрент

Лицензия

скачать торрент

MVO

1

1 сезон

скачать торрент

1 сезон

скачать торрент

Лицензия

  

Рейд / The Raid: Redemption / Serbuan maut (Гарет Эванс) [2011 г., боевик, триллер, криминал,BD-Remux, Дубляж (лицензия)]

Рейд через торрент piratbit.org

Размер: 29.88 GB | Добавлен: 10 лет назад | Торрент скачан:109 раз
Смотреть онлайн | Скачать | Поддержите нас   

18-08-2012 10:39 Рейд Скачать торрент  



Рейд / The Raid: Redemption / Serbuan maut
«Спецназ против мафии. Брат против брата. 15 этажей ада»
Фильм-сенсация кинофестиваля независимого кино «САНДЭНС» 2012.
Год выпуска: 2011
Страна: США, Индонезия
Жанр: боевик, триллер, криминал
Продолжительность: 01:41:04
Перевод: Дубляж (Лицензия)
Субтитры: Russian (RUS BD), English (x3)
Тип релиза: Лицензия

Режиссер: Гарет Эванс
Продюссер: Арио Саганторо, Ранга Майя Барак-Эванс, Натаниель Болотин
Сценарий: Гарет Эванс

Премьера в мире: 8 сентября 2011




Ико Ювайс,Джо Таслим, Дони Аламсях, Яян Рухьян, Пьер Грюно, Рэй Сахетапи, Тегар Сатрия, Ианг Дармаван, Эка «Пиранья» Рахмадия, Верди Солайман


Отряд спецназовцев получает задание проникнуть в многоэтажный дом, расположенный в самом сердце трущоб Джакарты, и арестовать обосновавшегося там наркобарона, которого охраняет целая армия вооруженных до зубов головорезов. Операцию нужно провести без лишнего шума, но нелепая случайность нарушает планы служителей закона. Теперь бойцам негде спрятаться и некуда бежать. Перед ними 15 этажей ада, где смертью грозит каждый неверный шаг. Война по правилам кончилась. Выживает сильнейший!

Сохранены оригинальные чаптеры как на Blu-ray.
Дорожки №2,3 получены наложением чистого голоса на центр декодированного DTS-HD MA.

Качество: BD-Remux
Формат: BDAV
Видео кодек: MPEG-4 AVC
Аудио кодек: DTS-HD
Видео: 1920x1080p at 23.976 fps, MPEG-4 AVC,32,6 Мбит/сек, ~23051 kbps avg
Аудио#1: Russian: 48 kHz/16-bit, DTS-HD MA 5.1, ~1949.00 kbps avg|Дубляж, RUS BD (Саундтрек - Майк Шинода)|
Аудио#2: Russian: 48 kHz/24-bit, DTS-HD MA 5.1, ~3544.00 kbps avg|Одноголосый закадровый, Ю.Сербин (Саундтрек - Майк Шинода)|
Аудио#3: Russian: 48 kHz/24-bit, DTS-HD MA 5.1, ~3480.00 kbps avg|Одноголосый закадровый, Ю.Сербин (Оригинальный саундтрек)|
Аудио#4: Indonesian: 48 kHz/24-bit, DTS-HD MA 5.1, ~3531.00 kbps avg (Саундтрек - Майк Шинода)
Аудио#5: Indonesian: 48 kHz/24-bit, DTS-HD MA 5.1, ~3468.00 kbps avg (Оригинальный саундтрек)
Аудио#6: English: 48 kHz, AC3, 2/0 (L,R) ch, ~192.00 kbps avg |Commentary with Writer/Director Gareth Evans|

Общее
Полное имя : D:\Рейд-2011.BDRemux.1080p.HDCLUB
Формат : Blu-ray movie
Продолжительность : 1 ч. 41 м.
Режим общего битрейта : Переменный
Общий поток : 1 бит/сек

Видео
Идентификатор : 4113 (0x1011)
Идентификатор меню : 1 (0x1)
Формат : AVC
Формат/Информация : Advanced Video Codec
Профиль формата : High@L4.1
Параметр CABAC формата : Да
Параметр ReFrames формата : 4 кадра
Идентификатор кодека : 27
Продолжительность : 1 ч. 41 м.
Вид битрейта : Переменный
Битрейт : 32,6 Мбит/сек
Максимальный битрейт : 30,0 Мбит/сек
Ширина : 1920 пикселей
Высота : 1080 пикселей
Соотношение сторон : 16:9
Частота кадров : 23,976 кадра/сек
Цветовое пространство : YUV
Субдискретизация насыщенности : 4:2:0
Битовая глубина : 8 бит
Размер потока : 23,0 Гбайт (77%)
Оригинал : 00000.m2ts

Аудио #1
Идентификатор : 4352 (0x1100)
Идентификатор меню : 1 (0x1)
Формат : DTS
Формат/Информация : Digital Theater Systems
Профиль формата : MA / Core
Режим смешивания : Stream extension
Идентификатор кодека : 134
Продолжительность : 1 ч. 41 м.
Вид битрейта : Переменный
Битрейт : 1561 Кбит/сек / 1510 Кбит/сек
Каналы : 6 каналов
Расположение каналов : Front: L C R, Side: L R, LFE
Частота : 48,0 КГц
Битовая глубина : 16 бит
Метод сжатия : Без потерь / Lossy
Язык : Russian / Russian
Оригинал : 00000.m2ts

Аудио #2
Идентификатор : 4353 (0x1101)
Идентификатор меню : 1 (0x1)
Формат : DTS
Формат/Информация : Digital Theater Systems
Профиль формата : MA / Core
Режим смешивания : Stream extension
Идентификатор кодека : 134
Продолжительность : 1 ч. 41 м.
Вид битрейта : Переменный
Битрейт : 1561 Кбит/сек / 1510 Кбит/сек
Каналы : 6 каналов
Расположение каналов : Front: L C R, Side: L R, LFE
Частота : 48,0 КГц
Битовая глубина : 24 бит
Метод сжатия : Без потерь / Lossy
Язык : Russian / Russian
Оригинал : 00000.m2ts

Аудио #3
Идентификатор : 4354 (0x1102)
Идентификатор меню : 1 (0x1)
Формат : DTS
Формат/Информация : Digital Theater Systems
Профиль формата : MA / Core
Режим смешивания : Stream extension
Идентификатор кодека : 134
Продолжительность : 1 ч. 41 м.
Вид битрейта : Переменный
Битрейт : 1561 Кбит/сек / 1510 Кбит/сек
Каналы : 6 каналов
Расположение каналов : Front: L C R, Side: L R, LFE
Частота : 48,0 КГц
Битовая глубина : 24 бит
Метод сжатия : Без потерь / Lossy
Язык : Russian / Russian
Оригинал : 00000.m2ts

Аудио #4
Идентификатор : 4355 (0x1103)
Идентификатор меню : 1 (0x1)
Формат : DTS
Формат/Информация : Digital Theater Systems
Профиль формата : MA / Core
Режим смешивания : Stream extension
Идентификатор кодека : 134
Продолжительность : 1 ч. 41 м.
Вид битрейта : Переменный
Битрейт : 1561 Кбит/сек / 1510 Кбит/сек
Каналы : 6 каналов
Расположение каналов : Front: L C R, Side: L R, LFE
Частота : 48,0 КГц
Битовая глубина : 24 бит
Метод сжатия : Без потерь / Lossy
Язык : Indonesian / Indonesian
Оригинал : 00000.m2ts

Аудио #5
Идентификатор : 4356 (0x1104)
Идентификатор меню : 1 (0x1)
Формат : DTS
Формат/Информация : Digital Theater Systems
Профиль формата : MA / Core
Режим смешивания : Stream extension
Идентификатор кодека : 134
Продолжительность : 1 ч. 41 м.
Вид битрейта : Переменный
Битрейт : 1561 Кбит/сек / 1510 Кбит/сек
Каналы : 6 каналов
Расположение каналов : Front: L C R, Side: L R, LFE
Частота : 48,0 КГц
Битовая глубина : 24 бит
Метод сжатия : Без потерь / Lossy
Язык : Indonesian / Indonesian
Оригинал : 00000.m2ts

Аудио #6
Идентификатор : 4357 (0x1105)
Идентификатор меню : 1 (0x1)
Формат : AC-3
Формат/Информация : Audio Coding 3
Расширение режима : CM (complete main)
Параметр Endianness формата : Big
Идентификатор кодека : 129
Продолжительность : 1 ч. 41 м.
Вид битрейта : Постоянный
Битрейт : 192 Кбит/сек
Каналы : 2 канала
Расположение каналов : Front: L R
Частота : 48,0 КГц
Битовая глубина : 16 бит
Метод сжатия : С потерями
Размер потока : 139 Мбайт (0%)
Язык : English / English
dsurmod : 0
dialnorm : -27
dialnorm/String : -27 dB
compr : 5.46
compr/String : 5.46 dB
dynrng : 5.46
dynrng/String : 5.46 dB
bsid : 8
dialnorm_Average : -27
dialnorm_Average/String : -27 dB
dialnorm_Minimum : -27
dialnorm_Minimum/String : -27 dB
dialnorm_Maximum : -27
dialnorm_Maximum/String : -27 dB
dialnorm_Count : 286
compr_Average : 5.91
compr_Average/String : 5.91 dB
compr_Minimum : 5.46
compr_Minimum/String : 5.46 dB
compr_Maximum : 6.02
compr_Maximum/String : 6.02 dB
compr_Count : 286
dynrng_Average : 5.89
dynrng_Average/String : 5.89 dB
dynrng_Minimum : 5.46
dynrng_Minimum/String : 5.46 dB
dynrng_Maximum : 6.02
dynrng_Maximum/String : 6.02 dB
dynrng_Count : 286
Оригинал : 00000.m2ts

Текст #1
Идентификатор : 4608 (0x1200)
Идентификатор меню : 1 (0x1)
Формат : PGS
Идентификатор кодека : 144
Продолжительность : 1 ч. 41 м.
Язык : Russian / Russian
Оригинал : 00000.m2ts

Текст #2
Идентификатор : 4609 (0x1201)
Идентификатор меню : 1 (0x1)
Формат : PGS
Идентификатор кодека : 144
Продолжительность : 1 ч. 41 м.
Язык : English / English
Оригинал : 00000.m2ts

Текст #3
Идентификатор : 4610 (0x1202)
Идентификатор меню : 1 (0x1)
Формат : PGS
Идентификатор кодека : 144
Продолжительность : 1 ч. 41 м.
Язык : English / English
Оригинал : 00000.m2ts

Текст #4
Идентификатор : 4611 (0x1203)
Идентификатор меню : 1 (0x1)
Формат : PGS
Идентификатор кодека : 144
Продолжительность : 1 ч. 41 м.
Язык : English / English
Оригинал : 00000.m2ts

Меню
00:00:00.000 : Chapter 1
00:06:15.124 : Chapter 2
00:12:36.380 : Chapter 3
00:17:37.765 : Chapter 4
00:22:45.697 : Chapter 5
00:27:06.916 : Chapter 6
00:32:45.880 : Chapter 7
00:37:27.495 : Chapter 8
00:42:37.888 : Chapter 9
00:48:49.927 : Chapter 10
00:55:16.104 : Chapter 11
00:59:58.720 : Chapter 12
01:05:15.828 : Chapter 13
01:10:53.332 : Chapter 14
01:16:29.167 : Chapter 15
01:30:09.779 : Chapter 16




Скачать Рейд через торрент http://i41.fastpic.ru/big/2012/0818/71/241619475fafb138981db66558de1371.jpg Скачать, смотреть онлайн Рейд бесплантно в хорошем качестве Год выпуска: 2011Страна: США, ИндонезияЖанр: боевик, триллер, криминалПродолжительность: 01:41:04Перевод: Дубляж (Лицензия)Субтитры: ... 10 10 4
Info! Золотая раздача, скачанное не засчитывается.
Торрент: Зарегистрирован [2012-08-18 10:39] · скачан: 109 раз
Статус: √ проверено
Размер: 29.88 GB
Как cкачать? Как скачать Рейд через торрент | UTorrent

% Раздел Тема Автор DL S | L
Фильмы [HD 720p, 1080p] (Хороший звук DUB, MVO) [ 5.07 GB ] Рейд / Serbuan maut | DUB | 720p msltel Скачать
1 | 0
Фильмы [HD 720p, 1080p] (Хороший звук DUB, MVO) [ 14.55 GB ] Рейд / Serbuan maut | DUB | 1080p msltel Скачать
1 | 0
Фильмы [HD 720p, 1080p] (Хороший звук DUB, MVO) [ 3.97 GB ] Рейд / Serbuan maut | Дубляж | 1080p, HEVC (10bit Мичман37 Скачать
1 | 0
Фильмы (HD 720p, 1080p) (48-60 fps) [ 16.3 GB ] Рейд 2 / The Raid 2: Berandal | Лицензия | 1080p,Дубляж - [Лицензия Tiberiumsun69 Скачать
1 | 0
Фильмы 2011 [ 1.46 GB ] Рейд / Serbuan maut / 2011 / HDRip | DUB | HDRip (Гарет Эванс Twi7ter Скачать
2 | 0
Фильмы 2014 [DVDrip, WEB-DLRip, HDrip] [ 2.19 GB ] Рейд 2 / The Raid 2: Berandal | Лицензия | BDRip, Дубляж Лицензия coc900 Скачать
1 | 0
Фильмы 2014 [DVDrip, WEB-DLRip, HDrip] [ 2.92 GB ] Рейд 2 / The Raid 2: Berandal | Лицензия | BDRip-AVC от potroks potroks Скачать
1 | 0

28-11-2019 20:33  


Отключить вcю реклaмy на сайте, в т.ч. и в плеере онлайн просмотра!

18-08-2012 13:08 Рейд Скачать торрент  

фильм просто замечательный



18-08-2012 21:32 Рейд Скачать торрент  

dabrik



05-09-2012 12:47 Рейд Скачать торрент  

фильм просто непредсказуемый)))



17-11-2012 17:16 Рейд Скачать торрент  

встаньте кто-нибудь на раздачу -.-



02-01-2013 17:17 Рейд Скачать торрент  

ребята. пожалуйста поддайте газку



13-01-2013 19:25 Рейд Скачать торрент  

Встаньте на раздачу плиз



16-03-2013 17:30 Рейд Скачать торрент  

Классный фильм!! хочу BD релиз в коллекцию, но скорость не высокая. Будем ждать



09-07-2013 12:53 Рейд Скачать торрент  

посидируйте пожалуйста



29-01-2015 20:30 Рейд Скачать торрент  

раздайте плиз !



    Дорогой пользователь! Огромная просьба, поблагодарите релизера, оцените раздачу и оставьте свои комментарий, если Вы скачали Рейд через торрент бесплатно!!
    Комментировать посты могут только пользователи прошедшие не сложную регистрацию
    Показать сообщения:    


    Рейд через торрент
    Скачать бесплатно Рейд
    Рейд скачать торрент
    Рейд смотреть онлайн
    Cкачать фильм Рейд бесплатно
    Рейд скачать торрент в хорошем качестве
    Рейд смотреть онлайн бесплатно в хорошем качестве
    Вы не можете начинать темы
    Вы не можете отвечать на сообщения
    Вы не можете редактировать свои сообщения
    Вы не можете удалять свои сообщения
    Вы не можете голосовать в опросах
    Вы не можете прикреплять файлы к сообщениям
    Вы можете скачивать файлы
    Рейд / The Raid: Redemption / Serbuan maut [2011 г., боевик, триллер, криминал,BD-Remux, Дубляж ] смотреть онлайн, скачать торрент picoco.icu