Достать ножи: Стеклянная луковица

MVO

Добыча

Дубляж

Уэнсдэй

1 сезон

Тор

Дубляж

13 клиническая

1 сезон

Жестокая ночь

MVO

Одни из нас

1 сезон

Deluxe

pack

Рекомендуем

30

Пиратка

ВАЖНО

ВАЖНО

Ghostwire

Пиратка

jed

RePack

nioh2

RePack

RDR2

RePack

NEED FOR SPEED™ PAYBACK

RePack

скачать торрент

Кинопоиск HD

Острые козырьки 6 сезон

6 сезон

FAR CRY 6

RePack

скачать торрент

Лицензия

скачать торрент

MVO

1

1 сезон

скачать торрент

1 сезон

скачать торрент

Лицензия

  

Особо тяжкие преступления / High Crimes (Карл Франклин / Carl Franklin) [2002 г., триллер, драма, криминал, BDRemux 1080p, Дубляж + Оригинал]

Особо тяжкие преступления через торрент piratbit.org

Размер: 29.38 GB | Добавлен: 10 лет назад | Торрент скачан:6 раз
Смотреть онлайн | Скачать | Поддержите нас   

19-08-2012 08:56 Особо тяжкие преступления Скачать торрент  

Особо тяжкие преступления / High Crimes

Год выпуска: 2002
Страна: США
Жанр: триллер, драма, криминал
Продолжительность: 01:55:13
Перевод: Дубляж + Оригинал

Режиссер: Карл Франклин / Carl Franklin
Продюссер: Джесси Битон / Jesse Beaton, Наоми Деспрес / Naomi Despres, Лиза Хенсон / Lisa Henson, Дэннис Э. Джонс / Dennis E. Jones, Арнон Милчэн / Arnon Milchan
Сценарий: Джозеф Финдер / Joseph Finder, Юрий Зельцер / Yuri Zeltser, Грейс Кэри Бикли / Grace Cary Bickley

В ролях: Эшли Джадд (Claire Kubik), Морган Фриман (Charles W. Grimes), Джеймс Кэвизел (Tom Kubik, Sgt. Ron Chapman), Адам Скотт (Lt. Terrence Embry), Аманда Пит (Jackie), Брюс Дэвисон (Brig. Gen. Bill Marks), Том Бауэр (FBI Agent Mullins), Хуан Карлос Хернандез (Maj. James Hernandez), Майкл Гэстон (Maj. Lucas Waldron), Джуд Чикколелла (Col. Farrell), Эмилио Ривера (Salvadoran Man), Майкл Шэннон (Troy Abbott)

Описание: Преуспевающая в своей деятельности адвокат и счастливая супруга, героиня Эшли Джадд, потрясена известием о том, что ее муж является секретным агентом, работающим под прикрытием.
Мало того, он еще и обвинен в совершении государственного военного преступления. Поскольку она готовится защищать своего мужа в военном суде, то ей на помощь приходит бывший военный поверенный, который играет по своим правилам…..

Качество: BDRemux 1080p
Формат: MKV
Видео кодек: Другой MPEG4-AVC
Аудио кодек: DTS
Видео: AVC, 1920x1080 (16:9), 23.976 fps, 32.2 Mbps (0.647 bit/pixel)
Аудио#1: DTS, 48.0 KHz, 6 ch, 755 Kbps, CBR (Russian)
Аудио#2: DTS MA / Core, 48.0 KHz, 6 ch, 2 626 Kbps / 1 510 Kbps, VBR (English)
Аудио#3: AC-3, 48.0 KHz, 2 ch, 224 Kbps, CBR (English)

Субтитры: Английский, Русский


General
Unique ID : 215622091984981057688110673672514832849 (0xA2374DEAB3E5E908A61E74B54B9C09D1)
Complete name : D:\High Crimes BDRemux.mkv
Format : Matroska
Format version : Version 2
File size : 29.4 GiB
Duration : 1h 55mn
Overall bit rate mode : Variable
Overall bit rate : 36.5 Mbps
Encoded date : UTC 2010-06-07 15:23:22
Writing application : mkvmerge v3.3.0 ('Language') built on Mar 24 2010 14:59:24
Writing library : libebml v0.8.0 + libmatroska v0.9.0

Video
ID : 1
Format : AVC
Format/Info : Advanced Video Codec
Format profile : High@L4.1
Format settings, CABAC : Yes
Format settings, ReFrames : 4 frames
Codec ID : V_MPEG4/ISO/AVC
Duration : 1h 55mn
Bit rate mode : Variable
Bit rate : 32.2 Mbps
Maximum bit rate : 34.5 Mbps
Width : 1 920 pixels
Height : 1 080 pixels
Display aspect ratio : 16:9
Frame rate mode : Constant
Frame rate : 23.976 fps
Color space : YUV
Chroma subsampling : 4:2:0
Bit depth : 8 bits
Scan type : Progressive
Bits/(Pixel*Frame) : 0.647
Stream size : 25.9 GiB (88%)
Language : English
Default : Yes
Forced : No
Color primaries : BT.709
Transfer characteristics : BT.709
Matrix coefficients : BT.709

Audio #1
ID : 2
Format : DTS
Format/Info : Digital Theater Systems
Codec ID : A_DTS
Duration : 1h 55mn
Bit rate mode : Constant
Bit rate : 755 Kbps
Channel(s) : 6 channels
Channel positions : Front: L C R, Side: L R, LFE
Sampling rate : 48.0 KHz
Bit depth : 24 bits
Compression mode : Lossy
Stream size : 622 MiB (2%)
Language : Russian
Default : Yes
Forced : No

Audio #2
ID : 3
Format : DTS
Format/Info : Digital Theater Systems
Format profile : MA / Core
Codec ID : A_DTS
Duration : 1h 55mn
Bit rate mode : Variable
Bit rate : 2 626 Kbps / 1 510 Kbps
Channel(s) : 6 channels
Channel positions : Front: L C R, Side: L R, LFE
Sampling rate : 48.0 KHz
Bit depth : 24 bits
Compression mode : Lossless / Lossy
Language : English
Default : No
Forced : No

Audio #3
ID : 4
Format : AC-3
Format/Info : Audio Coding 3
Mode extension : CM (complete main)
Format settings, Endianness : Big
Codec ID : A_AC3
Duration : 1h 55mn
Bit rate mode : Constant
Bit rate : 224 Kbps
Channel(s) : 2 channels
Channel positions : Front: L R
Sampling rate : 48.0 KHz
Bit depth : 16 bits
Compression mode : Lossy
Stream size : 185 MiB (1%)
Title : Commentary
Language : English
Default : No
Forced : No

Text #1
ID : 5
Format : UTF-8
Codec ID : S_TEXT/UTF8
Codec ID/Info : UTF-8 Plain Text
Language : Russian
Default : Yes
Forced : No

Text #2
ID : 6
Format : UTF-8
Codec ID : S_TEXT/UTF8
Codec ID/Info : UTF-8 Plain Text
Default : No
Forced : No




Скачать Особо тяжкие преступления через торрент http://pic.lg.ua/x/11/5ddabe/44a8eb2d.png Скачать, смотреть онлайн Особо тяжкие преступления бесплантно в хорошем качестве Описание: Преуспевающая в своей деятельности адвокат и счастливая супруга, героиня Эшли Джадд, потрясена известием о том, что ее муж ... 5 10 7
Info! Золотая раздача, скачанное не засчитывается.
Торрент: Зарегистрирован [2012-08-19 08:56] · скачан: 6 раз
Статус: √ проверено
Размер: 29.38 GB
Как cкачать? Как скачать Особо тяжкие преступления через торрент | UTorrent

28-11-2019 20:33  


Отключить вcю реклaмy на сайте, в т.ч. и в плеере онлайн просмотра!

    Дорогой пользователь! Огромная просьба, поблагодарите релизера, оцените раздачу и оставьте свои комментарий, если Вы скачали Особо тяжкие преступления через торрент бесплатно!!
    Комментировать посты могут только пользователи прошедшие не сложную регистрацию
    Показать сообщения:    


    Особо тяжкие преступления через торрент
    Скачать бесплатно Особо тяжкие преступления
    Особо тяжкие преступления скачать торрент
    Особо тяжкие преступления смотреть онлайн
    Cкачать фильм Особо тяжкие преступления бесплатно
    Особо тяжкие преступления скачать торрент в хорошем качестве
    Особо тяжкие преступления смотреть онлайн бесплатно в хорошем качестве
    Вы не можете начинать темы
    Вы не можете отвечать на сообщения
    Вы не можете редактировать свои сообщения
    Вы не можете удалять свои сообщения
    Вы не можете голосовать в опросах
    Вы не можете прикреплять файлы к сообщениям
    Вы можете скачивать файлы
    Особо тяжкие преступления / High Crimes [2002 г., триллер, драма, криминал, BDRemux 1080p, Дубляж + Оригинал] смотреть онлайн, скачать торрент picoco.icu