2 сезон

iTunes

MVO

1

2 сезон

iTunes

iTunes

1 сезон

RePack

30

Новинка

ВАЖНО

ИГРА 18+

pack

RePack

MK11
pack

Легкие деньги

RePack

jed

RePack

fifa19

RePack

RDR2

RePack

NEED FOR SPEED™ PAYBACK

4 сезон

9 сезон

Бесстыжие 9 сезон

Все сериалы

все сериалы на PB.wtf

RePack

FAR CRY 5

Anonymous, добрый вечер, мы не успеваем собрать деньги на оплату серверов за декабрь и январь, помогите нам пожалуйста в это трудное время. В качестве благодарности мы отключим Вам всю рекламу на сайте (укажите свой ник в строку Ваше имя)!

×
  
Magnet ссылка

Любовь по расписанию / Поезд / 2012 / SATRip (Сергей Мезенцев) (Мелодрама, Оригинал) piratbit.org

Любовь по расписанию через торрент piratbit.org

Размер: 1.37 GB | Добавлен: 8 лет 4 мес. назад | Торрент скачан:328 раз
Скачать  

19-08-2012 23:56 Любовь по расписанию Скачать торрент  

Любовь по расписанию / Поезд

Год выпуска: 2012
Страна: Россия
Жанр: Мелодрама
Продолжительность: 01:29:39
Перевод: Оригинал

Режиссер: Сергей Мезенцев

В ролях: Дарья Волга, Александр Арсентьев, Илья Соколовский, Анастасия Панина, Алиса Майорова

Описание: Главная героиня фильма всегда считала себя счастливой в браке. Но однажды она узнает, что у ее мужа в другом городе есть семья.

Качество: SATRip
Формат: AVI
Видео кодек: DivX
Аудио кодек: MP3
Видео: DivX 6.9.2 720x400 25.00fps 1985kbps
Аудио#1: Mp3, 2(сн), 192kbps, 48.0 KHz
General
Complete name : E:\Торрент фильмы\Lyubov_po_Raspisaniyu_2012_SATRip.avi
Format : AVI
Format/Info : Audio Video Interleave
File size : 1.37 GiB
Duration : 1h 29mn
Overall bit rate : 2 188 Kbps
Writing application : VirtualDubModRus 1.5.10.1 (build 2439/release)
Writing library : VirtualDubMod build 2439/release

Video
ID : 0
Format : MPEG-4 Visual
Format settings, BVOP : Yes
Format settings, QPel : No
Format settings, GMC : No warppoints
Format settings, Matrix : Default (H.263)
Muxing mode : Packed bitstream
Codec ID : DX50
Codec ID/Hint : DivX 5
Duration : 1h 29mn
Bit rate : 1 987 Kbps
Width : 720 pixels
Height : 400 pixels
Display aspect ratio : 16:9
Frame rate : 25.000 fps
Resolution : 8 bits
Colorimetry : 4:2:0
Scan type : Progressive
Bits/(Pixel*Frame) : 0.276
Stream size : 1.24 GiB (91%)
Writing library : DivX 6.8.5 (UTC 2009-08-20)

Audio
ID : 1
Format : MPEG Audio
Format version : Version 1
Format profile : Layer 2
Codec ID : 50
Duration : 1h 29mn
Bit rate mode : Constant
Bit rate : 192 Kbps
Channel(s) : 2 channels
Sampling rate : 48.0 KHz
Stream size : 123 MiB (9%)
Alignment : Aligned on interleaves
Interleave, duration : 40 ms (1.00 video frame)
Interleave, preload duration : 504 ms

piratbit.org



Скачать Любовь по расписанию через торрент http://pic.kartinco.top/images/1/fq9iqbvuse.jpg Скачать фильм Любовь по расписанию через торрент бесплантно в хорошем качестве Описание: Главная героиня фильма всегда считала себя счастливой в браке. Но однажды она узнает, что у ее мужа в другом городе есть ... 5 10 1
Info! Золотая раздача, скачанное не засчитывается.
Торрент: Зарегистрирован [2012-08-19 23:56] · скачан: 328 раз
Статус: √ проверено
Размер: 1.37 GB
Как cкачать? Как скачать Любовь по расписанию через торрент | UTorrent



Последний раз редактировалось: maygli (2012-08-20 10:03), всего редактировалось 1 раз

28-11-2019 20:33  

Отключить всю рекламу на сайте

20-08-2012 05:40 Любовь по расписанию Скачать торрент  

maygli
Аудио:
Битрейт аудио (kbps), каналы( ch), частота звука (КГц)piratbit.org



20-08-2012 10:24 Любовь по расписанию Скачать торрент  

добавилpiratbit.org



    Дорогой пользователь! Огромная просьба, поблагодарите релизера, оцените раздачу и оставьте свои комментарий, если Вы скачали Любовь по расписанию через торрент бесплатно! Внесите свою лепту в развитие PiratBit!
    Комментировать посты могут только пользователи прошедшие не сложную регистрацию
    Показать сообщения:    

    Любовь по расписанию через торрент
    Скачать бесплатно Любовь по расписанию
    Любовь по расписанию скачать торрент
    Любовь по расписанию смотреть онлайн
    Cкачать фильм Любовь по расписанию бесплатно
    Любовь по расписанию скачать торрент в хорошем качестве
    Любовь по расписанию смотреть онлайн бесплатно в хорошем качестве


    Вы не можете начинать темы
    Вы не можете отвечать на сообщения
    Вы не можете редактировать свои сообщения
    Вы не можете удалять свои сообщения
    Вы не можете голосовать в опросах
    Вы не можете прикреплять файлы к сообщениям
    Вы можете скачивать файлы