1 сезон

1 сезон

iTunes

1

КиноПоиск HD

Кинопоиск HD

iTunes

13

1 сезон

RePack

30

Deluxe

ВАЖНО

ИГРА 18+

pack

RePack

MK11
pack

Легкие деньги

RePack

jed

RePack

fifa19

RePack

RDR2

RePack

NEED FOR SPEED™ PAYBACK

4 сезон

9 сезон

Бесстыжие 9 сезон

Все сериалы

все сериалы на PB.wtf

RePack

FAR CRY 5
  
Magnet ссылка

Рок-звезда / Rock Star / 2001 / HDRip (Стивен Херек) (драма, комедия, музыка, DUB + Оригинал) piratbit.org

Рок-звезда через торрент piratbit.org

Размер: 2.05 GB | Добавлен: 8 лет 8 мес. назад | Торрент скачан:35 раз
Скачать  

20-08-2012 11:03 Рок-звезда Скачать торрент  

Рок-звезда / Rock Star

Год выпуска: 2001
Страна: США
Жанр: драма, комедия, музыка
Продолжительность: 01:46:01
Перевод: Дубляж + Оригинал

Режиссер: Стивен Херек
Продюссер: Тоби Джаффе, Роберт Лоуренс, Джордж Клуни
Сценарий: Джон Стокуэлл

Бюджет: $57 000 000
Премьера в мире: 4 сентября 2001



В ролях: Марк Уолберг, Дженнифер Энистон, Доминик Уэст, Джейсон Бонем, Джефф Пилсон, Закк Уайлд, Тимоти Сполл, Блас Елиас, Ник Катанезе, Брайан Вандер Арк, Андрей Бархударов, Любовь Германова, Сергей Быстрицкий, Ольга Кузнецова, Александр Новиков

Описание: Днем Крис Коул занимается починкой копировальной техники. По ночам он — подражает рок-группе «Steel Dragon» самой крутой в мире «тяжелого металла». Неожиданно ему представилась удивительная возможность: стать новым солистом настоящего «Steel Dragon»!В одночасье он, никому не известный парнишка из маленького городка, становится супер-звездой. В одночасье он, и его менеджер/подружка Эмили погружаются в мир безумства, которое трудно себе представить.

Доп. информация:
релиз на DVD 16 августа 2012, «CP Дистрибуция»

Качество: HDRip
Формат: AVI
Видео кодек: XviD
Аудио кодек: AC3
Видео: 720x304 (2.37:1), 23.976 fps, XviD build 64 ~1931 kbps avg, 0.37 bit/pixel
Аудио#1: 48 kHz, AC3 Dolby Digital, 3/2 (L,C,R,l,r) + LFE ch, ~448 kbps (Russian-DUB)
Аудио#2: 48 kHz, AC3 Dolby Digital, 3/2 (L,C,R,l,r) + LFE ch, ~384 kbps (English-Original)

Мечты сбываются…

Кто из нас хоть раз не подражал, своим кумирам или рок-идолам? Пожалуй, никто. Фильм повествует о жизни обычного парня (Марка Уолберга), занимающегося своей рутинной работой, но втайне, мечтающего о карьере рок-музыканта. Дни идут, и неожиданно ему подворачивается шанс воплотить свою мечту в реальность…

Фильм может провести довольно много параллелей с действительными реалиями в рок-вселенной. Здесь можно вспомнить не только историю Тима Риппера Оуэнса, но и всем не безызвестного Дэвида Ковердейла из Deep Purple/Whitesnake, который был обычным парнишкой, работавшим продавцом, и в одночасье, ставшим одним из величайших рок-вокалистов. Как большой поклонник тяжелой рок-музыки, в частности такой как Dokken (в фильме роль басиста Steel Dragon, играл басист Dokken — Jeff Pilson) и творчества Закка Уайлда, я не мог пропустить данный фильм.

Если с откровенностью сказать, то фильм меня зацепил, да не только зацепил, но и прочно укрепился на полке моих любимых кинолент.

9 из 10


Марки Марк в роле рок-идола

Очень уважаю Марка Уолберг, как актера. Много фильмов пересмотрел с ним. Попался как то в кинопоиске фильм «Рок-звезда». Не мог пропустить, ибо очень ценю тяжелую музыку, да и актеры собрались очень хорошие.

В фильме я увидел историю восхождения обычного парня, подражающего любимой группе. Честно говоря в какой-то степени сам таким являюсь. Игра Уолберга мне понравилась. Он хорошо и правдоподобно сыграл вокалиста хеви-металл группы, учитывая его прошлое реп-певца. Дженифер Энистон тоже приятно удивила. Это вам не в сериале сниматься. Олифант хоть и мало был в кадре, но приятно было посмотреть на длинноволосого «Сорок Седьмого».

На мой взгляд, режиссер сумел показать обе стороны жизни рок-звезд. Фильм должен посмотреть каждый, кто собирается покорять рок-сцену, чтоб задуматься над вопросом: а нужно ли это? Особенно понравился конец фильма. Постриженный Марк мне очень сильно напомнил небезызвестного лидера группы «Нирвана» это улыбнуло.

Достойный фильм с интересным и не стандартным сюжетом.

9 из 10


История сродни той, что «из грязи в князи».
В Крисе Коуле почти все увидят себя — ибо кто в своё время не мечтал быть Мерилин Монро, Френком Синатрой или Элвисом?

Фильм снят весьма реалистично, искренне, зажигательно (для любителей рока). Но всё же чего-то не хватает, чего-то еле уловимого…

8 из 10.



Формат : AVI
Формат/Информация : Audio Video Interleave
Профиль формата : OpenDML
Размер файла : 2,05 Гбайт
Продолжительность : 1 ч. 46 м.
Общий поток : 2770 Кбит/сек
Название фильма : Рок-звезда
Жанр : драма, комедия, музыка
Программа кодирования : VirtualDubMod 1.5.10.3 (build 2550/release)
Формат оригинала/Имя : Фильмы
Примечание : Rip от кэп

Видео
Идентификатор : 0
Формат : MPEG-4 Visual
Профиль формата : Advanced Simple@L5
Параметр BVOP формата : Нет
Параметр QPel формата : Нет
Параметр GMC формата : Без точки перехода
Параметр матрицы формата : Default (MPEG)
Идентификатор кодека : XVID
Идентификатор кодека/Подсказка : XviD
Продолжительность : 1 ч. 46 м.
Битрейт : 1926 Кбит/сек
Ширина : 720 пикселей
Высота : 304 пикселя
Соотношение сторон : 2,35:1
Частота кадров : 23,976 кадра/сек
Цветовое пространство : YUV
Субдискретизация насыщенности : 4:2:0
Битовая глубина : 8 бит
Тип развёртки : Прогрессивная
Метод сжатия : С потерями
Бит/(Пиксели*Кадры) : 0.367
Размер потока : 1,43 Гбайт (70%)
Библиотека кодирования : XviD 64

Аудио #1
Идентификатор : 1
Формат : AC-3
Формат/Информация : Audio Coding 3
Расширение режима : CM (complete main)
Параметр Endianness формата : Big
Идентификатор кодека : 2000
Продолжительность : 1 ч. 46 м.
Вид битрейта : Постоянный
Битрейт : 448 Кбит/сек
Каналы : 6 каналов
Расположение каналов : Front: L C R, Side: L R, LFE
Частота : 48,0 КГц
Битовая глубина : 16 бит
Метод сжатия : С потерями
Размер потока : 340 Мбайт (16%)
Выравнивание : Разделение по промежуткам
Продолжительность промежутка : 69 мс. (1,64 видеокадра)
Время предзагрузки промежутка : 548 мс.

Аудио #2
Идентификатор : 2
Формат : AC-3
Формат/Информация : Audio Coding 3
Расширение режима : CM (complete main)
Параметр Endianness формата : Big
Идентификатор кодека : 2000
Продолжительность : 1 ч. 46 м.
Вид битрейта : Постоянный
Битрейт : 384 Кбит/сек
Каналы : 6 каналов
Расположение каналов : Front: L C R, Side: L R, LFE
Частота : 48,0 КГц
Битовая глубина : 16 бит
Метод сжатия : С потерями
Размер потока : 291 Мбайт (14%)
Выравнивание : Разделение по промежуткам
Продолжительность промежутка : 80 мс. (1,92 видеокадра)
Время предзагрузки промежутка : 560 мс.

piratbit.org



Скачать Рок-звезда через торрент https://pic1.kartinco.top/images/111/474vxcq1ja.png Скачать фильм Рок-звезда через торрент бесплантно в хорошем качестве Описание: Днем Крис Коул занимается починкой копировальной техники. По ночам он — подражает рок-группе «Steel Dragon» самой крутой в мире ... 10 10 2
Info! Золотая раздача, скачанное не засчитывается.
Торрент: Зарегистрирован [2012-08-20 11:03] · скачан: 35 раз
Статус: √ проверено
Размер: 2.05 GB
Как cкачать? Как скачать Рок-звезда через торрент | UTorrent

28-11-2019 20:33  

Отключить всю рекламу на сайте

    Дорогой пользователь! Огромная просьба, поблагодарите релизера, оцените раздачу и оставьте свои комментарий, если Вы скачали Рок-звезда через торрент бесплатно! Внесите свою лепту в развитие PiratBit!
    Комментировать посты могут только пользователи прошедшие не сложную регистрацию
    Показать сообщения:    

    Рок-звезда через торрент
    Скачать бесплатно Рок-звезда
    Рок-звезда скачать торрент
    Рок-звезда смотреть онлайн
    Cкачать фильм Рок-звезда бесплатно
    Рок-звезда скачать торрент в хорошем качестве
    Рок-звезда смотреть онлайн бесплатно в хорошем качестве


    Вы не можете начинать темы
    Вы не можете отвечать на сообщения
    Вы не можете редактировать свои сообщения
    Вы не можете удалять свои сообщения
    Вы не можете голосовать в опросах
    Вы не можете прикреплять файлы к сообщениям
    Вы можете скачивать файлы