Ссылка на приватное зеркало нашего сайта всего за 1$. Внимание количество ограничено!!!

2 сезон

iTunes

iTunes

1

iTunes

iTunes

iTunes

WEBRip

iTunes

30
pack

Вам бонус

ВАЖНО

!!Акция!!

Alien_RageХит недели

RePack

Horizon Zero Dawn

ИГРА 18+

pack

RePack

jed

!!Акция!!

Alien_Rage

RePack

fifa19

RePack

Assassins Creed: Odyssey

RePack

NEED FOR SPEED™ PAYBACK

4 сезон

9 сезон

Бесстыжие 9 сезон

Все сериалы

все сериалы на PB.wtf

RePack

FAR CRY 5
  

Лавка чудес / Mr. Magorium's Wonder Emporium (Зак Хелм) [2007 г., комедия, фэнтези, семейный, BDRip, DUB + Оригинал] piratbit.org

Лавка чудес через торрент piratbit.org

Размер: 1.45 GB | Добавлен: 8 лет 1 мес. назад | Торрент скачан:21 раз
Скачать  

22-08-2012 16:14 Лавка чудес Скачать торрент  

Лавка чудес / Mr. Magorium's Wonder Emporium
«Сказка для детей, волшебство для родителей.»
Год выпуска: 2007
Страна: США
Жанр: комедия, фэнтези, семейный
Продолжительность: 01:34:16
Перевод: Дубляж + Оригинал

Режиссер: Зак Хелм
Продюссер: Джеймс Гаравенте, Ричард Н. Гладштейн, Джозеф Дрэйк
Сценарий: Зак Хелм

Премьера в мире: 15 ноября 2007



В ролях: Тед Лудзик, Натали Портман, Захари Миллс, Дастин Хоффман, Мадалена Бранкателла, Паула Бодро, Майк Рилба, Стив Уитмир, Лайам Паули-Вебстер, Марсия Беннетт

Описание: Эксцентричный владелец волшебного магазина игрушек Эдвард Магориум, собирается отойти от дел по состоянию здоровья — всё-таки стукнул 243-й день рождения. Мистер Магориум за 114 лет управления магазином сумел превратить его в самое волшебное и красочное место на земле, где всегда был слышен детский смех. Он решает доверить своё необычно предприятие служащей-менеджеру Молли Махоуни. Молли — 25-летняя девушка. И хотя её жизнь полна радости и сюрпризов, девушка страдает от депрессии. В итоге её подавленное состояние души приводит к тому, что некогда шумный и оживлённый магазин превращается в серое и унылое место, находящееся на грани закрытия… история только начинается!

Качество: BDRip
Формат: AVI
Видео кодек: XviD
Аудио кодек: AC3
Видео: XviD, 720x304, 1545 kbps, 0.295 bit/pixel, 23.976 fps
Аудио#1: 48 kHz, AC3, 6 ch, 448.00 kbps / Русский дубляж
Аудио#2: 48 kHz, AC3, 2 ch, 192.00 kbps / Оригинал

General
Complete name : G:\Рип\Mr. Magorium's Wonder Emporium.2007.HQBDRip-PT.avi
Format : AVI
Format/Info : Audio Video Interleave
File size : 1.45 GiB
Duration : 1h 34mn
Overall bit rate : 2 199 Kbps
Movie name : Лавка чудес / Mr. Magorium's Wonder Emporium (2007) BDRip
Director : Rulya74 [1080p]
Writing application : VirtualDubModRus 1.5.10.2 (build 2542/release)
Writing library : VirtualDubMod build 2542/release
Copyright : www.PowerTracker.org

Video
ID : 0
Format : MPEG-4 Visual
Format profile : Advanced Simple@L5
Format settings, BVOP : Yes
Format settings, QPel : No
Format settings, GMC : No warppoints
Format settings, Matrix : Default (MPEG)
Codec ID : XVID
Codec ID/Hint : XviD
Duration : 1h 34mn
Bit rate : 1 546 Kbps
Width : 720 pixels
Height : 304 pixels
Display aspect ratio : 2.35:1
Frame rate : 23.976 fps
Resolution : 8 bits
Colorimetry : 4:2:0
Scan type : Progressive
Bits/(Pixel*Frame) : 0.295
Stream size : 1.02 GiB (70%)
Writing library : XviD 1.2.1 (UTC 2008-12-04)

Audio #1
ID : 1
Format : AC-3
Format/Info : Audio Coding 3
Codec ID : 2000
Duration : 1h 34mn
Bit rate mode : Constant
Bit rate : 448 Kbps
Channel(s) : 6 channels
Channel positions : Front: L C R, Surround: L R, LFE
Sampling rate : 48.0 KHz
Stream size : 302 MiB (20%)
Alignment : Split accross interleaves
Interleave, duration : 42 ms (1.00 video frame)
Interleave, preload duration : 500 ms

Audio #2
ID : 2
Format : AC-3
Format/Info : Audio Coding 3
Codec ID : 2000
Duration : 1h 34mn
Bit rate mode : Constant
Bit rate : 192 Kbps
Channel(s) : 2 channels
Channel positions : L R
Sampling rate : 48.0 KHz
Stream size : 129 MiB (9%)
Alignment : Split accross interleaves
Interleave, duration : 42 ms (1.00 video frame)
Interleave, preload duration : 500 ms

piratbit.org



Скачать Лавка чудес через торрент http://pic.kartinco.top/images/1/nhf2zxhv6z.png Скачать фильм Лавка чудес через торрент бесплантно в хорошем качестве Описание: Эксцентричный владелец волшебного магазина игрушек Эдвард Магориум, собирается отойти от дел по состоянию здоровья — всё-таки ... 10 10 1
Info! Золотая раздача, скачанное не засчитывается.
Торрент: Зарегистрирован [2012-08-22 16:14] · скачан: 21 раз
Статус: √ проверено
Размер: 1.45 GB
Как cкачать? Как скачать Лавка чудес через торрент | qTorrent

28-11-2019 20:33  

Отключить всю рекламу на сайте

22-08-2012 16:46 Лавка чудес Скачать торрент  

piratbit.org



22-08-2012 17:00 Лавка чудес Скачать торрент  

это исправляется или изначально нужно оформлять описание?
моей вины нет!piratbit.org



22-08-2012 17:16 Лавка чудес Скачать торрент  

maygli писал(а):

это исправляется или изначально нужно оформлять описание?
моей вины нет!

Технический сбой! Описание я исправил!piratbit.org



22-08-2012 17:18 Лавка чудес Скачать торрент  

спасибоpiratbit.org



    Дорогой пользователь! Огромная просьба, поблагодарите релизера, оцените раздачу и оставьте свои комментарий, если Вы скачали Лавка чудес через торрент бесплатно! Внесите свою лепту в развитие PiratBit!
    Комментировать посты могут только пользователи прошедшие не сложную регистрацию
    Показать сообщения:    

    Лавка чудес через торрент
    Скачать бесплатно Лавка чудес
    Лавка чудес скачать торрент
    Лавка чудес смотреть онлайн
    Cкачать фильм Лавка чудес бесплатно
    Лавка чудес скачать торрент в хорошем качестве
    Лавка чудес смотреть онлайн бесплатно в хорошем качестве


    Вы не можете начинать темы
    Вы не можете отвечать на сообщения
    Вы не можете редактировать свои сообщения
    Вы не можете удалять свои сообщения
    Вы не можете голосовать в опросах
    Вы не можете прикреплять файлы к сообщениям
    Вы можете скачивать файлы