Достать ножи: Стеклянная луковица

MVO

Добыча

Дубляж

Уэнсдэй

1 сезон

Тор

Дубляж

13 клиническая

1 сезон

Жестокая ночь

MVO

Одни из нас

1 сезон

Deluxe

pack

Рекомендуем

30

Пиратка

ВАЖНО

ВАЖНО

Ghostwire

Пиратка

jed

RePack

nioh2

RePack

RDR2

RePack

NEED FOR SPEED™ PAYBACK

RePack

скачать торрент

Кинопоиск HD

Острые козырьки 6 сезон

6 сезон

FAR CRY 6

RePack

скачать торрент

Лицензия

скачать торрент

MVO

1

1 сезон

скачать торрент

1 сезон

скачать торрент

Лицензия

  

Приют / The Orphanage (Хуан Антонио Байона) [2007 г., Mистика, триллер, Драма, BDRemux, Дубляж + Оригинал+AVO]

Приют через торрент piratbit.org

Размер: 15.22 GB | Добавлен: 10 лет назад | Торрент скачан:2 раза
Смотреть онлайн | Скачать | Поддержите нас   

24-08-2012 10:41 Приют Скачать торрент  

Приют / The OrphanageГод выпуска: 2007
Страна: США
Жанр: Mистика, триллер, Драма
Продолжительность: 01:45:45
Перевод: Дубляж + Оригинал+AVO

Режиссер: Хуан Антонио Байона

В ролях: Белен Руэда, Фернандо Кайо, Мэйбл Ривера, Эдгар Вивар, Оскар Касас, Алехандро Кампос, Кармен Лопез, Оскар Лара, Джеральдин Чаплин, Бланка Мартинез

Описание: Самые счастливые годы Лаура провела в сиротском приюте на побережье. Любимые воспитатели заменили ей родителей, а друзья — братьев и сестер. Через тридцать лет Лаура возвращается в дом своего детства с мужем и семилетним сыном. Она мечтает восстановить его и открыть для новых маленьких посетителей. Однако героиню поразили перемены, произошедшие с ее собственным сыном.
Из милого мальчика он превратился в маленького монстра с жестокими фантазиями и опасными играми. Она уверена, что во всем виноват старый дом, таящий скрытую угрозу. Постепенно картины прошлого всплывают в памяти Лауры и открывают ей страшную истину….

Качество: BDRemux
Формат: MKV
Видео кодек: MPEG-4 AVC/H.264
Аудио кодек: DTS+AC3
Видео: AVC, 1920x1080 (16:9), 23.976 fps, 17.6 Mbps
Аудио#1: DTS, 48.0 KHz, 6 ch, 755 Kbps, CBR (Russian)(Дубляж)
Аудио#2: AC-3, 48.0 KHz, 6 ch, 384 Kbps, CBR (Russian)(Авторский, одноголосый, Немахов)
Аудио#3: DTS, 48.0 KHz, 6 ch, 1 510 Kbps, CBR (Spanish)


General
Unique ID : 233812577266769889947025241581430331263 (0xAFE6AA15ACF0D4AEB9819727E845577F)
Complete name : D:\The.Orphanage.BD-Remux.mkv
Format : Matroska
Format version : Version 1
File size : 15.2 GiB
Duration : 1h 45mn
Overall bit rate mode : Variable
Overall bit rate : 20.6 Mbps
Encoded date : UTC 2008-09-26 16:06:14
Writing application : mkvmerge v2.2.0 ('Turn It On Again') built on Mar 4 2008 12:58:26
Writing library : libebml v0.7.7 + libmatroska v0.8.1

Video
ID : 1
Format : AVC
Format/Info : Advanced Video Codec
Format profile : High@L4.1
Format settings, CABAC : Yes
Format settings, ReFrames : 4 frames
Muxing mode : Container profile=Unknown@0.0
Codec ID : V_MPEG4/ISO/AVC
Duration : 1h 45mn
Bit rate mode : Variable
Bit rate : 17.6 Mbps
Maximum bit rate : 33.0 Mbps
Width : 1 920 pixels
Height : 1 080 pixels
Display aspect ratio : 16:9
Frame rate mode : Constant
Frame rate : 23.976 fps
Standard : NTSC
Color space : YUV
Chroma subsampling : 4:2:0
Bit depth : 8 bits
Scan type : Progressive
Bits/(Pixel*Frame) : 0.354
Stream size : 13.0 GiB (85%)
Language : Spanish
Default : Yes
Forced : No
Color primaries : BT.709
Transfer characteristics : BT.709
Matrix coefficients : BT.709

Audio #1
ID : 2
Format : DTS
Format/Info : Digital Theater Systems
Codec ID : A_DTS
Duration : 1h 45mn
Bit rate mode : Constant
Bit rate : 755 Kbps
Channel(s) : 6 channels
Channel positions : Front: L C R, Side: L R, LFE
Sampling rate : 48.0 KHz
Bit depth : 24 bits
Compression mode : Lossy
Stream size : 570 MiB (4%)
Title : DTS - 768 Kbps (Dubbed)
Language : Russian
Default : Yes
Forced : No

Audio #2
ID : 3
Format : AC-3
Format/Info : Audio Coding 3
Mode extension : CM (complete main)
Format settings, Endianness : Big
Codec ID : A_AC3
Duration : 1h 45mn
Bit rate mode : Constant
Bit rate : 384 Kbps
Channel(s) : 6 channels
Channel positions : Front: L C R, Side: L R, LFE
Sampling rate : 48.0 KHz
Bit depth : 16 bits
Compression mode : Lossy
Stream size : 290 MiB (2%)
Title : AC3 - 384 Kbps (Nemahov)
Language : Russian
Default : No
Forced : No

Audio #3
ID : 4
Format : DTS
Format/Info : Digital Theater Systems
Codec ID : A_DTS
Duration : 1h 45mn
Bit rate mode : Constant
Bit rate : 1 510 Kbps
Channel(s) : 6 channels
Channel positions : Front: L C R, Side: L R, LFE
Sampling rate : 48.0 KHz
Bit depth : 16 bits
Compression mode : Lossy
Stream size : 1.11 GiB (7%)
Title : DTS - 1536 Kbps
Language : Spanish
Default : No
Forced : No


Работавший над релизом никогда не откажется от благодарности в виде СПАСИБО!!!!



Скачать Приют через торрент http://pic.lg.ua/x/12/c4bf8c/9db60d62.jpg Скачать, смотреть онлайн Приют бесплантно в хорошем качестве Описание: Самые счастливые годы Лаура провела в сиротском приюте на побережье. Любимые воспитатели заменили ей родителей, а друзья — ... 5 10 1
Info! Золотая раздача, скачанное не засчитывается.
Торрент: Зарегистрирован [2012-08-24 10:41] · скачан: 2 раз
Статус: √ проверено
Размер: 15.22 GB
Как cкачать? Как скачать Приют через торрент | UTorrent

% Раздел Тема Автор DL S | L
Фильмы 2006-2008 [ 2.51 GB ] Приют / El orfanato | | BDRip nitles666 Скачать
1 | 0

28-11-2019 20:33  


Отключить вcю реклaмy на сайте, в т.ч. и в плеере онлайн просмотра!

24-08-2012 11:47 Приют Скачать торрент  

на раздаче щас буду были проблемы с интернетом



    Дорогой пользователь! Огромная просьба, поблагодарите релизера, оцените раздачу и оставьте свои комментарий, если Вы скачали Приют через торрент бесплатно!!
    Комментировать посты могут только пользователи прошедшие не сложную регистрацию
    Показать сообщения:    


    Приют через торрент
    Скачать бесплатно Приют
    Приют скачать торрент
    Приют смотреть онлайн
    Cкачать фильм Приют бесплатно
    Приют скачать торрент в хорошем качестве
    Приют смотреть онлайн бесплатно в хорошем качестве
    Вы не можете начинать темы
    Вы не можете отвечать на сообщения
    Вы не можете редактировать свои сообщения
    Вы не можете удалять свои сообщения
    Вы не можете голосовать в опросах
    Вы не можете прикреплять файлы к сообщениям
    Вы можете скачивать файлы
    Приют / The Orphanage [2007 г., Mистика, триллер, Драма, BDRemux, Дубляж + Оригинал+AVO] смотреть онлайн, скачать торрент picoco.icu