Ссылка на приватное зеркало нашего сайта всего за 1$. Внимание количество ограничено!!!

2 сезон

iTunes

iTunes

1

iTunes

iTunes

iTunes

WEBRip

iTunes

30
pack

Вам бонус

ВАЖНО

!!Акция!!

Alien_RageХит недели

RePack

Horizon Zero Dawn

ИГРА 18+

pack

RePack

jed

!!Акция!!

Alien_Rage

RePack

fifa19

RePack

Assassins Creed: Odyssey

RePack

NEED FOR SPEED™ PAYBACK

4 сезон

9 сезон

Бесстыжие 9 сезон

Все сериалы

все сериалы на PB.wtf

RePack

FAR CRY 5
  

Призраки / Wind Chill (Грегори Джейкобс) [2007 г., триллер, ужасы, драма, HDTVRip, MVO] piratbit.org

Призраки через торрент piratbit.org

Размер: 1.37 GB | Добавлен: 8 лет 1 мес. назад | Торрент скачан:431 раз
Скачать  

24-08-2012 14:17 Призраки Скачать торрент  

Призраки / Wind Chill
«There Are Worse Things Than Dying»
Год выпуска: 2007
Страна: США, Великобритания
Жанр: триллер, ужасы, драма
Продолжительность: 01:27:02
Перевод: Профессиональный многоголосый

Режиссер: Грегори Джейкобс
Продюссер: Грэхэм Броадбент, Джордж Клуни, Бен Косгров
Сценарий: Джо Ганджеми, Стивен Кац

Премьера в мире: 27 апреля 2007



В ролях: Эмили Блант, Эштон Холмс, Мартин Донован, Нед Беллами, Йен А. Уоллес, Донни Джеймс Лукас, Челан Симмонс, Даррен Мур, Линден Бэнкс, Каз Один Дарко

Описание: Ежегодно в мире бесследно исчезают тысячи людей. Как правило, тому всегда можно, подобрать рациональное объяснение. Но бывает и по-другому…
Пара студентов, поехав домой на каникулы, решает воспользоваться дорогой, явно не пользующейся большой популярностью. Увы, слишком поздно герои вспоминают, что не следует доверять коротким; но заброшенным путям.
Первая же ночь в этой пустынной местности проясняет, почему она так безлюдна: жаждущие крови призраки погибших на этой дороге восстают в сумерках из могил, дабы охотиться на незваных гостей. И если герои не найдут способа дать отпор злобным мертвецам, они никогда больше не увидят своих родных и близких…

Качество: HDTVRip
Формат: AVI
Видео кодек: XviD
Аудио кодек: AC3
Видео: XviD, 720x304, 1791 kbps, 0.327 bit/pixel, 25.000 fps
Аудио#1: 48 kHz, AC3 5/1. 6 ch, 448.00 kbps

General
Complete name : G:\Торрент фильмы\Prizraki.2007.HDTV.kinomagia.avi
Format : AVI
Format/Info : Audio Video Interleave
File size : 1.37 GiB
Duration : 1h 27mn
Overall bit rate : 2 249 Kbps
Writing application : VirtualDubMod 1.5.10.3 | www.virtualdub-fr.org || (build 2550/release)
Writing library : VirtualDubMod build 2550/release

Video
ID : 0
Format : MPEG-4 Visual
Format profile : Advanced Simple@L5
Format settings, BVOP : Yes
Format settings, QPel : No
Format settings, GMC : No warppoints
Format settings, Matrix : Default (H.263)
Codec ID : XVID
Codec ID/Hint : XviD
Duration : 1h 27mn
Bit rate : 1 791 Kbps
Width : 720 pixels
Height : 304 pixels
Display aspect ratio : 2.35:1
Frame rate : 25.000 fps
Resolution : 8 bits
Colorimetry : 4:2:0
Scan type : Progressive
Bits/(Pixel*Frame) : 0.327
Stream size : 1.09 GiB (80%)
Writing library : XviD 65

Audio
ID : 1
Format : AC-3
Format/Info : Audio Coding 3
Codec ID : 2000
Duration : 1h 27mn
Bit rate mode : Constant
Bit rate : 448 Kbps
Channel(s) : 6 channels
Channel positions : Front: L C R, Surround: L R, LFE
Sampling rate : 48.0 KHz
Stream size : 279 MiB (20%)
Alignment : Split accross interleaves
Interleave, duration : 40 ms (1.00 video frame)
Interleave, preload duration : 500 ms

piratbit.org



Скачать Призраки через торрент http://i41.fastpic.ru/big/2012/0824/45/cfd7295a2bf26637dc1fabaa3a4e8a45.jpg Скачать фильм Призраки через торрент бесплантно в хорошем качестве Описание: Ежегодно в мире бесследно исчезают тысячи людей. Как правило, тому всегда можно, подобрать рациональное объяснение. Но бывает и ... 9.8 10 4
Info! Золотая раздача, скачанное не засчитывается.
Торрент: Зарегистрирован [2012-08-24 14:17] · скачан: 431 раз
Статус: √ проверено
Размер: 1.37 GB
Как cкачать? Как скачать Призраки через торрент | qTorrent

% Раздел Тема Автор DL S | L
T Фильмы [HD 720p, 1080p] (Хороший звук DUB, MVO) [ 6.8 GB ] Призраки / Wind Chill [2007 BDRip 1080p] MVO bober100 Скачать
1 | 0

28-11-2019 20:33  

Отключить всю рекламу на сайте

24-08-2012 15:50 Призраки Скачать торрент  

Спасибочки :pleasantry: :pleasantry: javascript:emoticon(':pleasantry:')piratbit.org



24-08-2012 16:30 Призраки Скачать торрент  

Фильм классныйpiratbit.org



    Дорогой пользователь! Огромная просьба, поблагодарите релизера, оцените раздачу и оставьте свои комментарий, если Вы скачали Призраки через торрент бесплатно! Внесите свою лепту в развитие PiratBit!
    Комментировать посты могут только пользователи прошедшие не сложную регистрацию
    Показать сообщения:    

    Призраки через торрент
    Скачать бесплатно Призраки
    Призраки скачать торрент
    Призраки смотреть онлайн
    Cкачать фильм Призраки бесплатно
    Призраки скачать торрент в хорошем качестве
    Призраки смотреть онлайн бесплатно в хорошем качестве


    Вы не можете начинать темы
    Вы не можете отвечать на сообщения
    Вы не можете редактировать свои сообщения
    Вы не можете удалять свои сообщения
    Вы не можете голосовать в опросах
    Вы не можете прикреплять файлы к сообщениям
    Вы можете скачивать файлы