2 сезон

iTunes

MVO

1

2 сезон

iTunes

iTunes

1 сезон

RePack

30

Новинка

ВАЖНО

ИГРА 18+

pack

RePack

MK11
pack

Легкие деньги

RePack

jed

RePack

fifa19

RePack

RDR2

RePack

NEED FOR SPEED™ PAYBACK

4 сезон

9 сезон

Бесстыжие 9 сезон

Все сериалы

все сериалы на PB.wtf

RePack

FAR CRY 5

Anonymous, добрый день, мы не успеваем собрать деньги на оплату серверов за декабрь и январь, помогите нам пожалуйста в это трудное время. В качестве благодарности мы отключим Вам всю рекламу на сайте (укажите свой ник в строку Ваше имя)!

×
  
Magnet ссылка

Большая ржака! (Виталий Москаленко) [2012 г., комедия, DVDRip, Оригинал] piratbit.org

Большая ржака! через торрент piratbit.org

Размер: 697 MB | Добавлен: 8 лет 4 мес. назад | Торрент скачан:940 раз
Скачать  

24-08-2012 18:55 Большая ржака! Скачать торрент  

Большая ржака!

Год выпуска: 2012
Страна: Россия / Авеста филмс
Жанр: комедия
Продолжительность: 01:20:10
Перевод: Оригинал [лицензия]
Режиссер: Виталий Москаленко
Премьера в мире: 2 августа 2012
В ролях:
Сергей Писаренко, Евгений Никишин, Анна Семенович, Александр Семчев, Сергей Дорогов, Александр Робак, Владимир Зайцев, Александра Флоринская, Михаил Владимиров, Ирина Медведева, Виктор Добронравов, Владимир Симонов, Ольга Волкова, Светлана Пермякова
Описание:
В провинциальном городке на местном ТВ прозябают два друга - Ширяев и Молоток, и их коллега - красавица Надя. Все трое мечтают разбогатеть и стать столичными звездами. Неожиданно им в голову приходит идея: устроить реалити-шоу, участники которого должны отыскать золото Колчака. Одержимые жадностью герои шоу пускаются в гонку за кладом на самолетах, поездах и автомобилях. В пути их ждут сумасшедшие приключения, и все они еще не знают главного секрета…
Качество: DVDRip
Формат: AVI
Видео кодек: XviD
Аудио кодек: MP3
Видео: 640x352 , 25 fps, XviD build 50 ~1077 kbps avg, 0.19 bit/pixel
Аудио#1: 48 kHz, MPEG Layer 3, 2 ch, ~128.00 kbps avg
Общее
Полное имя : E:\Загрузка\Bolshaya.rzhaka.2012.O.DVDRip.700MB.avi
Формат : AVI
Формат/Информация : Audio Video Interleave
Размер файла : 697 Мбайт
Продолжительность : 1 ч. 20 м.
Общий поток : 1215 Кбит/сек
Программа кодирования : VirtualDubMod 1.5.10.2 (build 2540/release)
Библиотека кодирования : VirtualDubMod build 2540/release

Видео
Идентификатор : 0
Формат : MPEG-4 Visual
Профиль формата : Advanced Simple@L5
Параметр BVOP формата : 2
Параметр QPel формата : Нет
Параметр GMC формата : Без точки перехода
Параметр матрицы формата : Выборочная
Идентификатор кодека : XVID
Идентификатор кодека/Подсказка : XviD
Продолжительность : 1 ч. 20 м.
Битрейт : 1077 Кбит/сек
Ширина : 640 пикселей
Высота : 352 пикселя
Соотношение сторон : 16:9
Частота кадров : 25,000 кадров/сек
Цветовое пространство : YUV
Субдискретизация насыщенности : 4:2:0
Битовая глубина : 8 бит
Тип развёртки : Прогрессивная
Метод сжатия : С потерями
Бит/(Пиксели*Кадры) : 0.191
Размер потока : 618 Мбайт (89%)
Библиотека кодирования : XviD 1.2.1 (UTC 2008-12-04)

Аудио
Идентификатор : 1
Формат : MPEG Audio
Версия формата : Version 1
Профиль формата : Layer 3
Идентификатор кодека : 55
Идентификатор кодека/Подсказка : MP3
Продолжительность : 1 ч. 20 м.
Вид битрейта : Постоянный
Битрейт : 128 Кбит/сек
Каналы : 2 канала
Частота : 48,0 КГц
Метод сжатия : С потерями
Задержка видео : 1 с. 776 мс.
Размер потока : 73,4 Мбайт (11%)
Выравнивание : Разделение по промежуткам
Продолжительность промежутка : 40 мс. (1,00 видеокадр)
Время предзагрузки промежутка : 504 мс.
Библиотека кодирования : LAME3.99r
Настройки программы : -m s -V 4 -q 2 -lowpass 17 -b 128

piratbit.org



Скачать Большая ржака! через торрент http://i40.fastpic.ru/big/2012/0824/1b/d1fb44edcd065b7cc46b07cd72940d1b.jpg Скачать фильм Большая ржака! через торрент бесплантно в хорошем качестве Описание: В провинциальном городке на местном ТВ прозябают два друга - Ширяев и Молоток, и их коллега - красавица Надя. Все трое мечтают ... 5 10 1
Info! Золотая раздача, скачанное не засчитывается.
Торрент: Зарегистрирован [2012-08-24 18:55] · скачан: 940 раз
Статус: √ проверено
Размер: 697 MB
Как cкачать? Как скачать Большая ржака! через торрент | UTorrent

% Раздел Тема Автор DL S | L
Наши новые фильмы 2012 [ 1.37 GB ] Большая ржака! [2012 DVDRip Оригинал] Ворон Скачать
1 | 0
Наши фильмы (DVD фильмы) [ 6.38 GB ] Большая ржака! [2012 DVD9] R5 voovaz Скачать
1 | 0

28-11-2019 20:33  

Отключить всю рекламу на сайте

24-08-2012 19:44 Большая ржака! Скачать торрент  

Большой fail, а не фильмpiratbit.org



24-08-2012 19:54 Большая ржака! Скачать торрент  

рейтинг 1.32-вотето там КИНИЩЩЩЕ :jest3:piratbit.org



25-08-2012 01:01 Большая ржака! Скачать торрент  

wwszpua писал(а):

рейтинг 1.32-вотето там КИНИЩЩЩЕ :jest3:

интересно,а ниже есть piratbit.org



25-08-2012 04:35 Большая ржака! Скачать торрент  

днище российского кинематографаpiratbit.org



01-09-2012 03:55 Большая ржака! Скачать торрент  

Большая клоакаpiratbit.org



    Дорогой пользователь! Огромная просьба, поблагодарите релизера, оцените раздачу и оставьте свои комментарий, если Вы скачали Большая ржака! через торрент бесплатно! Внесите свою лепту в развитие PiratBit!
    Комментировать посты могут только пользователи прошедшие не сложную регистрацию
    Показать сообщения:    

    Большая ржака! через торрент
    Скачать бесплатно Большая ржака!
    Большая ржака! скачать торрент
    Большая ржака! смотреть онлайн
    Cкачать фильм Большая ржака! бесплатно
    Большая ржака! скачать торрент в хорошем качестве
    Большая ржака! смотреть онлайн бесплатно в хорошем качестве


    Вы не можете начинать темы
    Вы не можете отвечать на сообщения
    Вы не можете редактировать свои сообщения
    Вы не можете удалять свои сообщения
    Вы не можете голосовать в опросах
    Вы не можете прикреплять файлы к сообщениям
    Вы можете скачивать файлы