Ссылка на приватное зеркало нашего сайта всего за 1$. Внимание количество ограничено!!!

2 сезон

iTunes

iTunes

1

iTunes

iTunes

iTunes

WEBRip

iTunes

30
pack

Вам бонус

ВАЖНО

!!Акция!!

Alien_RageХит недели

RePack

Horizon Zero Dawn

ИГРА 18+

pack

RePack

jed

!!Акция!!

Alien_Rage

RePack

fifa19

RePack

Assassins Creed: Odyssey

RePack

NEED FOR SPEED™ PAYBACK

4 сезон

9 сезон

Бесстыжие 9 сезон

Все сериалы

все сериалы на PB.wtf

RePack

FAR CRY 5
  

Компаньоны / A Prairie Home Companion (Роберт Олтмен) [2006 г., комедия, драма, мьюзикл, DVDRip, Профессиональный двухголосый] piratbit.org

Компаньоны через торрент piratbit.org

Размер: 1.37 GB | Добавлен: 8 лет 1 мес. назад | Торрент скачан:21 раз
Скачать  

24-08-2012 20:38 Компаньоны Скачать торрент  

Компаньоны / A Prairie Home Companion
«Live every show like it's your last.»
Год выпуска: 2006
Страна: США
Жанр: комедия, драма, мьюзикл
Продолжительность: 01:45:31
Перевод: Профессиональный двухголосый

Режиссер: Роберт Олтмен
Продюссер: Роберт Олтмен, Рен Артур, Джошуа Астрачан
Сценарий: Гаррисон Кейллор, Кен ЛаЗебник

Бюджет: $10 000 000
Премьера в мире: 12 февраля 2006



В ролях: Кевин Клайн, Томми Ли Джонс, Мэрил Стрип, Майя Рудольф, Вуди Харрельсон, Лили Томлин, Гаррисон Кейллор, Линдси Лохан, Вирджиния Мэдсен, Джон Си Райли, Мэрилуиз Бёрк, Тим Расселл, Сью Скотт, Ричард А. Дворски, Пэт Донохью, Энди Стейн, Гари Рейнор, Арни Кинселла, Питер Остроушко, Батч Томпсон, Кристофер К. Грэп, Дэбби ДеЛиси, Боб Дуглас, Адам Грэйнджер, Билл Хинкли, Джуди Ларсон, Дэн Ньютон, Джон Панкейк, Дик Риис, Бекки Шлегель, Поп Вагнер

Описание: В фильме рассказывается об эстрадном радиошоу, которому удалось выжить в эру телевидения. Но вот наступает день последнего эфира, поскольку театр, в котором находится радиостанция, продали техасскому конгломерату, намеревающемуся устроить на месте этого здания парковку.
Главные персонажи ленты — сестры Иоланда и Ронда Джонсон, составляющие кантри-дуэт; дочь Иоланды Лола, которая не смогла использовать уникальный шанс спеть во время шоу, так как забыла слова; неудачливый частный сыщик Гай Нуар, исполняющий обязанности секьюрити; вокальный дуэт ковбоев Дасти и Лефти, а также ангел…

Качество: DVDRip
Формат: AVI
Видео кодек: XviD
Аудио кодек: AC3
Видео: XviD, 720x304, ~1658 кб/с, 23.976 fps
Аудио#1: AC3, 2 ch, 192 кб/с, 48.0 KHz

General
Complete name : G:\Торрент фильмы\Kompanony.2006.avi
Format : AVI
Format/Info : Audio Video Interleave
File size : 1.37 GiB
Duration : 1h 45mn
Overall bit rate : 1 857 Kbps
Writing application : VirtualDubMod 1.5.4.1 (build 2178/release)
Writing library : VirtualDubMod build 2178/release

Video
ID : 0
Format : MPEG-4 Visual
Format profile : Advanced Simple@L5
Format settings, BVOP : No
Format settings, QPel : No
Format settings, GMC : No warppoints
Format settings, Matrix : Custom
Codec ID : XVID
Codec ID/Hint : XviD
Duration : 1h 45mn
Bit rate : 1 658 Kbps
Width : 720 pixels
Height : 304 pixels
Display aspect ratio : 2.35:1
Frame rate : 23.976 fps
Resolution : 8 bits
Colorimetry : 4:2:0
Scan type : Progressive
Bits/(Pixel*Frame) : 0.316
Stream size : 1.22 GiB (89%)
Writing library : XviD 64

Audio
ID : 1
Format : AC-3
Format/Info : Audio Coding 3
Codec ID : 2000
Duration : 1h 45mn
Bit rate mode : Constant
Bit rate : 192 Kbps
Channel(s) : 2 channels
Channel positions : L R
Sampling rate : 48.0 KHz
Stream size : 145 MiB (10%)
Alignment : Split accross interleaves
Interleave, duration : 96 ms (2.30 video frames)
Interleave, preload duration : 96 ms
Language : Russian

piratbit.org



Скачать Компаньоны через торрент http://i43.fastpic.ru/big/2012/0825/0c/fb099fd910ccecae642119a94bc8500c.jpg Скачать фильм Компаньоны через торрент бесплантно в хорошем качестве Описание: В фильме рассказывается об эстрадном радиошоу, которому удалось выжить в эру телевидения. Но вот наступает день последнего эфира, ... 5 10 1
Info! Золотая раздача, скачанное не засчитывается.
Торрент: Зарегистрирован [2012-08-24 20:38] · скачан: 21 раз
Статус: √ проверено
Размер: 1.37 GB
Как cкачать? Как скачать Компаньоны через торрент | qTorrent

28-11-2019 20:33  

Отключить всю рекламу на сайте

    Дорогой пользователь! Огромная просьба, поблагодарите релизера, оцените раздачу и оставьте свои комментарий, если Вы скачали Компаньоны через торрент бесплатно! Внесите свою лепту в развитие PiratBit!
    Комментировать посты могут только пользователи прошедшие не сложную регистрацию
    Показать сообщения:    

    Компаньоны через торрент
    Скачать бесплатно Компаньоны
    Компаньоны скачать торрент
    Компаньоны смотреть онлайн
    Cкачать фильм Компаньоны бесплатно
    Компаньоны скачать торрент в хорошем качестве
    Компаньоны смотреть онлайн бесплатно в хорошем качестве


    Вы не можете начинать темы
    Вы не можете отвечать на сообщения
    Вы не можете редактировать свои сообщения
    Вы не можете удалять свои сообщения
    Вы не можете голосовать в опросах
    Вы не можете прикреплять файлы к сообщениям
    Вы можете скачивать файлы