новый адрес
Мега распродажа FORZA HORIZON 4 ULTIMATE+ВСЕ DLC+ОНЛАЙН всего за 499р. 349 руб. (супер цена). Внимание количество ограничено!!!

iTunes

1+1

iTunes

мы

iTunes

1

iTunes

Чернобыль

iTunes

Ральф против интернета

Лицензия

ПШазам

Лицензия

Оно 2

Лицензия

30
pack

ВАЖНО

!!Акция!!

Alien_RageХит недели

RePack

Resident Evil 21

ИГРА 18+

pack

RePack

Metro:Exodus

!!Акция!!

Alien_Rage

RePack

fifa19

RePack

Assassins Creed: Odyssey

RePack

NEED FOR SPEED™ PAYBACK

3 сезон

9 сезон

Бесстыжие 9 сезон

Все сериалы

все сериалы на PB.wtf

RePack

FAR CRY 5
Ребята, катастрофически не хватает 1900р. для оплаты серверов за Октябрь (всвязи с блокировками трафик упал в 3 раза), 1-2р., выручайте.
  

Акулы 3D / Sharks 3D (Жан-Жак Мантелло / Jean-Jacques Mantello) [2004 г., Документальный, BDRip 1080p, Профессиональный + Оригинал] piratbit.org

Акулы 3D через торрент piratbit.org

Размер: 4.55 GB | Добавлен: 7 лет 2 мес. назад | Торрент скачан:574 раза
Скачать  

28-08-2012 14:23 Акулы 3D Скачать торрент  

Акулы 3D / Sharks 3D
Год выпуска: 2004
Страна: Франция, Великобритания
Жанр: Документальный
Продолжительность: 00:41:33
Перевод: Профессиональный + Оригинал
Субтитры: Отсутствуют
Режиссер: Жан-Жак Мантелло / Jean-Jacques Mantello
Описание: Представленный Жаном-Мишелем Кусто трехмерный фильм «Акулы 3D» — это захватывающее зрелище, где публика имеет возможность буквально лицом к лицу встретиться со «львами» и «тиграми» мирового океана. Среди них — большая белая, китовая и рыба-молот.
Познакомьтесь с ними в их естественной среде обитания, постаравшись увидеть в них не пресловутых хищников-людоедов, а просто больших и красивых рыб, существовавших на Земле еще задолго до появления динозавров. Присоединяйтесь к команде опытных исследователей моря, которые отправляются в новую кругосветную экспедицию, чтобы запечатлеть на пленку жизнь самых опасных хищников мирового океана."
Доп. информация: Для просмотра этого фильма в 3D формате необходимо соответствующее оборудование.
Качество: BDRip 1080p
Формат: MKV
Видео кодек: x264
Аудио кодек: AC3
Видео: AVC / 1920х1080p / 23,976 fps / 14.5 Mbps
Аудио#1: Русский / AC3 / 5.1 ch / 448 Kbps / 48 KHz
Аудио#2: Английский / AC3 / 5.1 ch / 448 kbps / 48 KHz
Формат 3D: Half OverUnder / Вертикальная анаморфная стереопара
Порядок ракурсов: левый ракурс первый


General
Unique ID : 234338784911839333684800793018787334001 (0xB04C021FE733759D89185C2813BE8771)
Complete name : F:\Downloads\Sharks3D.halfOU.AC3.ash61.mkv
Format : Matroska
File size : 4.55 GiB
Duration : 41mn 35s
Overall bit rate : 15.7 Mbps
Encoded date : UTC 2011-07-05 09:40:01
Writing application : mkvmerge v3.4.0 ('Rapunzel') сборка от May 15 2010 09:38:20
Writing library : libebml v0.8.0 + libmatroska v0.9.0

Video
ID : 1
Format : AVC
Format/Info : Advanced Video Codec
Format profile : High@L4.1
Format settings, CABAC : Yes
Format settings, ReFrames : 4 frames
Format settings, GOP : M=1, N=48
Codec ID : V_MPEG4/ISO/AVC
Duration : 41mn 35s
Bit rate : 14.5 Mbps
Width : 1 920 pixels
Height : 1 080 pixels
Display aspect ratio : 0.889
Original display aspect ratio : 16:9
Frame rate : 23.976 fps
Color space : YUV
Chroma subsampling : 4:2:0
Bit depth : 8 bits
Scan type : Progressive
Bits/(Pixel*Frame) : 0.291
Stream size : 4.20 GiB (92%)
Title : Rip by Ash61
Writing library : x264 core 112 r1867 22bfd31
Encoding settings : cabac=1 / ref=4 / deblock=1:-1:-1 / analyse=0x3:0x113 / me=umh / subme=9 / psy=1 / psy_rd=1.00:0.15 / mixed_ref=1 / me_range=16 / chroma_me=1 / trellis=2 / 8x8dct=1 / cqm=0 / deadzone=21,11 / fast_pskip=1 / chroma_qp_offset=-3 / threads=3 / sliced_threads=0 / nr=0 / decimate=1 / interlaced=0 / constrained_intra=0 / bframes=4 / b_pyramid=0 / b_adapt=2 / b_bias=0 / direct=3 / weightb=1 / open_gop=0 / weightp=2 / keyint=250 / keyint_min=23 / scenecut=40 / intra_refresh=0 / rc_lookahead=40 / rc=crf / mbtree=1 / crf=18.0 / qcomp=0.60 / qpmin=10 / qpmax=51 / qpstep=4 / vbv_maxrate=50000 / vbv_bufsize=50000 / crf_max=0.0 / nal_hrd=none / ip_ratio=1.40 / aq=1:1.00

Audio #1
ID : 2
Format : AC-3
Format/Info : Audio Coding 3
Mode extension : CM (complete main)
Codec ID : A_AC3
Duration : 41mn 35s
Bit rate mode : Constant
Bit rate : 448 Kbps
Channel(s) : 6 channels
Channel positions : Front: L C R, Side: L R, LFE
Sampling rate : 48.0 KHz
Bit depth : 16 bits
Compression mode : Lossy
Stream size : 133 MiB (3%)
Language : Russian

Audio #2
ID : 3
Format : AC-3
Format/Info : Audio Coding 3
Mode extension : CM (complete main)
Codec ID : A_AC3
Duration : 41mn 35s
Bit rate mode : Constant
Bit rate : 448 Kbps
Channel(s) : 6 channels
Channel positions : Front: L C R, Side: L R, LFE
Sampling rate : 48.0 KHz
Bit depth : 16 bits
Compression mode : Lossy
Stream size : 133 MiB (3%)
Language : English

Menu
00:00:00.000 : :01
00:05:29.871 : :02
00:11:20.096 : :03
00:17:36.305 : :04
00:22:36.480 : :05
00:27:26.770 : :06
00:34:31.527 : :07
00:38:43.154 : :08

piratbit.org



Скачать Акулы 3D через торрент http://pic.kartinco.top/images/1/bl4v8p88ju.jpg Скачать фильм Акулы 3D через торрент бесплантно в хорошем качестве Описание: Представленный Жаном-Мишелем Кусто трехмерный фильм «Акулы 3D» — это захватывающее зрелище, где публика имеет возможность ... 10 10 7
Info! Золотая раздача, скачанное не засчитывается.
Торрент: Зарегистрирован [2012-08-28 14:23] · скачан: 574 раз
Статус: √ проверено
Размер: 4.55 GB
Как cкачать? Как скачать Акулы 3D через торрент | qTorrent

% Раздел Тема Автор DL S | L
Научно-популярные фильмы [ 765 MB ] Акулы 3D: Властелины подводного мира / Sharks 3D: Kings of the Ocean [ 2013 Германия документальный HDRip-AVC ] VO GEKADOL Скачать
1 | 0


>> Регистрируемся здесь <<






Отзывы и комментарии о схеме читаем и пишем здесь: ---> Отзывы и комментарии о схеме

Новые благодарочки в телеграм довольных пользователей:
скриншот   скриншот   скриншот   скриншот   скриншот
    Дорогой пользователь! Огромная просьба, поблагодарите релизера, оцените раздачу и оставьте свои комментарий, если Вы скачали Акулы 3D через торрент бесплатно! Внесите свою лепту в развитие PiratBit!
    Комментировать посты могут только пользователи прошедшие не сложную регистрацию
    Показать сообщения:    

    Акулы 3D через торрент
    Скачать бесплатно Акулы 3D
    Акулы 3D скачать торрент
    Акулы 3D смотреть онлайн
    Cкачать фильм Акулы 3D бесплатно
    Акулы 3D скачать торрент в хорошем качестве
    Акулы 3D смотреть онлайн бесплатно в хорошем качестве


    Вы не можете начинать темы
    Вы не можете отвечать на сообщения
    Вы не можете редактировать свои сообщения
    Вы не можете удалять свои сообщения
    Вы не можете голосовать в опросах
    Вы не можете прикреплять файлы к сообщениям
    Вы можете скачивать файлы