Ссылка на приватное зеркало нашего сайта всего за 1$. Внимание количество ограничено!!!

2 сезон

iTunes

iTunes

1

iTunes

iTunes

iTunes

WEBRip

iTunes

30
pack

Забери бонус

ВАЖНО

!!Акция!!

Alien_RageХит недели

RePack

RESIDENT EVIL 3: NEMESIS REMAKE

ИГРА 18+

pack

RePack

jed

!!Акция!!

Alien_Rage

RePack

fifa19

RePack

Assassins Creed: Odyssey

RePack

NEED FOR SPEED™ PAYBACK

4 сезон

9 сезон

Бесстыжие 9 сезон

Все сериалы

все сериалы на PB.wtf

RePack

FAR CRY 5
  

Элитный отряд / Tropa de Elite (Жозе Падилья) [2007 г., боевик, триллер, драма, криминал, HDRip, Профессиональный двухголосый]DVO + AVO piratbit.org

Элитный отряд через торрент piratbit.org

Качают: 1 [ 0 KB/s ]
Размер: 2.19 GB | Добавлен: 8 лет 1 мес. назад | Торрент скачан:107 раз
Скачать  

31-08-2012 19:28 Элитный отряд Скачать торрент  

Элитный отряд / Tropa de Elite

Год выпуска: 2007
Страна: Бразилия, Аргентина, США, Нидерланды
Жанр: боевик, триллер, драма, криминал
Продолжительность: 113 мин. / 01:53
Перевод: Профессиональный двухголосый

Режиссер: Жозе Падилья
Продюссер: Жозе Падилья, Маркос Прадо, Биа Кастро
Сценарий: Браулио Мантовани, Жозе Падилья, Андре Батиста

Бюджет: $4 000 000
Премьера в мире: 17 августа 2007

лицам до 17 лет обязательно присутствие взрослого
Мировой рейтинг IMDB 8.00 (41 453)


В ролях: Вагнер Моура, Андре Рамиру, Кайо Жункейра, Мильем Кортас, Фернанда Машаду, Мария Рибейру, Паоло Вилела, Фернанда Де Фрейтас, Андре Фелипе, Фабио Лаго

Описание: В 1997 году, перед визитом Папы Римского в Рио де-Жанейро, капитан Насцименто из БОПО (Батальона особых полицейских операций) получает задание устранить опасность, исходящую от наркоторговцев, действующих в опасных трущобах поблизости от резиденции Папы. Капитан Насцименто ищет человека, способного заменить его, так как жена капитана беременна, и он собирается оставить БОПО и стать наставником новобранцев. Тем временем, два друга-идеалиста Нето и Матиас начинают службу в военной полиции, рассчитывая стать честными полицейскими и бороться с криминалом. Однако они сталкиваются в военной полиции с коррупцией, недостатком профессионализма и бюрократическим идиотизмом. После серьёзного инцидента в Моро да Бабилония они решают вступить в ряды БОПО. Пути капитана Насцименто, Нето и Матиаса тесно переплетаются на протяжении нескольких месяцев, вначале в период жёстких тренировок, затем в операции против наркоторговцев. Насцименто верит, что Нето может заменить его, но импульсивная натура Нето затрудняет принятие решения. Позднее кандидатура интеллигентного Матиаса кажется корректным выбором, но Матиасу нужно доказать, что у него есть сердце...

Доп. информация: Берлинский кинофестиваль 2008
Золотой Медведь

Качество: HDRip
Формат: AVI
Видео кодек: XviD
Аудио кодек: AC3
Видео: 720x384 (1.88:1), 23.976 fps, XviD build 50 ~1963 kbps avg, 0.30 bit/pixel
Аудио#1: русский 48 kHz, AC3 Dolby Digital, 3/2 (L,C,R,l,r) + LFE ch, ~384.00 kbps avg Профессиональный двухголосый
Аудио#2: русский 48 kHz, AC3 Dolby Digital, 3/2 (L,C,R,l,r) + LFE ch, ~384.00 kbps avg Авторский перевод (Ю.Сербин)





E:\Торренты\Piratdit\Elitnyi otryad.avi
General
Complete name : E:\Торренты\Piratbit\Elitnyi otryad.avi
Format : AVI
Format/Info : Audio Video Interleave
Format profile : OpenDML
File size : 2.19 GiB
Duration : 1h 54mn
Overall bit rate : 2 732 Kbps
Writing application : VirtualDubMod 1.5.10.2 (build 2542/release)
Video #0
ID : 0
Format : MPEG-4 Visual
Format profile : Advanced Simple@L5
Format settings, BVOP : Yes
Format settings, QPel : No
Format settings, GMC : No warppoints
Format settings, Matrix : Custom
Codec ID : XVID
Codec ID/Hint : XviD
Duration : 1h 54mn
Bit rate : 1 953 Kbps
Width : 720 pixels
Height : 384 pixels
Display aspect ratio : 1.875
Frame rate : 23.976 fps
Color space : YUV
Chroma subsampling : 4:2:0
Bit depth : 8 bits
Scan type : Progressive
Compression mode : Lossy
Bits/(Pixel*Frame) : 0.295
Stream size : 1.56 GiB (71%)
Writing library : XviD 1.2.1 (UTC 2008-12-04)
Audio #1
ID : 1
Format : AC-3
Format/Info : Audio Coding 3
Mode extension : CM (complete main)
Codec ID : 2000
Duration : 1h 52mn
Bit rate mode : Constant
Bit rate : 384 Kbps
Channel(s) : 6 channels
Channel positions : Front: L C R, Side: L R, LFE
Sampling rate : 48.0 KHz
Bit depth : 16 bits
Compression mode : Lossy
Stream size : 310 MiB (14%)
Alignment : Split accross interleaves
Interleave, duration : 42 ms (1.02 video frame)
Interleave, preload duration : 500 ms
Audio #2
ID : 2
Format : AC-3
Format/Info : Audio Coding 3
Mode extension : CM (complete main)
Codec ID : 2000
Duration : 1h 54mn
Bit rate mode : Constant
Bit rate : 384 Kbps
Channel(s) : 6 channels
Channel positions : Front: L C R, Side: L R, LFE
Sampling rate : 48.0 KHz
Bit depth : 16 bits
Compression mode : Lossy
Stream size : 315 MiB (14%)
Alignment : Split accross interleaves
Interleave, duration : 42 ms (1.00 video frame)
Interleave, preload duration : 500 ms

piratbit.org



Скачать Элитный отряд через торрент http://pic.kartinco.top/images/1/ek3hpp9kg6.jpg Скачать фильм Элитный отряд через торрент бесплантно в хорошем качестве Описание: В 1997 году, перед визитом Папы Римского в Рио де-Жанейро, капитан Насцименто из БОПО (Батальона особых полицейских операций) ... 5 10 1
Info! Золотая раздача, скачанное не засчитывается.
Торрент: Зарегистрирован [2012-08-31 19:28] · скачан: 107 раз
Статус: √ проверено
Размер: 2.19 GB
Как cкачать? Как скачать Элитный отряд через торрент | qTorrent

% Раздел Тема Автор DL S | L
Фильмы (Blu-ray, BD-Remux, HDDVD) [ 22.44 GB ] Элитный отряд / Tropa de Elite / Elite Squad [2007 BDRemux 1080p от _denis_100 | NNNB] MVO + DVO + AVO + Original + Sub _denis_100 Скачать
1 | 0
Фильмы 2006-2008 [ 3.57 GB ] Элитный отряд / Tropa de Elite / Elite Squad [2007 BDRip-AVC от _denis_100 | NNNB] MVO + DVO + AVO + Original + Sub _denis_100 Скачать
1 | 0
Фильмы [HD 720p, 1080p] (Хороший звук DUB, MVO) [ 13.43 GB ] Элитный отряд / Tropa de Elite [2007 BDRip 1080p by msltel] MVO DVO AVO msltel Скачать
1 | 0
Фильмы [HD 720p, 1080p] (Хороший звук DUB, MVO) [ 5.83 GB ] Элитный отряд / Tropa de Elite [2007 BDRip 720p by msltel] MVO DVO AVO msltel Скачать
2 | 2

28-11-2019 20:33  

Отключить всю рекламу на сайте

31-08-2012 19:32 Элитный отряд Скачать торрент  

Приятно провести время! piratbit.org



11-11-2014 17:34 Элитный отряд Скачать торрент  

Шикарный фильм! )))piratbit.org



    Дорогой пользователь! Огромная просьба, поблагодарите релизера, оцените раздачу и оставьте свои комментарий, если Вы скачали Элитный отряд через торрент бесплатно! Внесите свою лепту в развитие PiratBit!
    Комментировать посты могут только пользователи прошедшие не сложную регистрацию
    Показать сообщения:    

    Элитный отряд через торрент
    Скачать бесплатно Элитный отряд
    Элитный отряд скачать торрент
    Элитный отряд смотреть онлайн
    Cкачать фильм Элитный отряд бесплатно
    Элитный отряд скачать торрент в хорошем качестве
    Элитный отряд смотреть онлайн бесплатно в хорошем качестве


    Вы не можете начинать темы
    Вы не можете отвечать на сообщения
    Вы не можете редактировать свои сообщения
    Вы не можете удалять свои сообщения
    Вы не можете голосовать в опросах
    Вы не можете прикреплять файлы к сообщениям
    Вы можете скачивать файлы