Достать ножи: Стеклянная луковица

MVO

Добыча

Дубляж

Уэнсдэй

1 сезон

Тор

Дубляж

13 клиническая

1 сезон

Жестокая ночь

MVO

Одни из нас

1 сезон

Deluxe

pack

Рекомендуем

30

Пиратка

ВАЖНО

ВАЖНО

Ghostwire

Пиратка

jed

RePack

nioh2

RePack

RDR2

RePack

NEED FOR SPEED™ PAYBACK

RePack

скачать торрент

Кинопоиск HD

Острые козырьки 6 сезон

6 сезон

FAR CRY 6

RePack

скачать торрент

Лицензия

скачать торрент

MVO

1

1 сезон

скачать торрент

1 сезон

скачать торрент

Лицензия

  

Три метра над уровнем неба: Я тебя хочу / Tengo ganas de ti (Фернандо Гонзалез Молина) [2012 г., драма, мелодрама, BD-Remux, Дубляж, лицензия]

Три метра над уровнем неба: Я тебя хочу через торрент piratbit.org

Размер: 19.05 GB | Добавлен: 8 лет 8 мес. назад | Торрент скачан:19 раз
Смотреть онлайн | Скачать | Поддержите нас   

03-09-2012 07:32 Три метра над уровнем неба: Я тебя хочу Скачать торрент  

Три метра над уровнем неба: Я тебя хочу / Tengo ganas de ti

  • Год выпуска: 2012
  • Страна: Испания
  • Жанр: драма, мелодрама
  • Продолжительность: 02:03:33
  • Перевод: Дубляж, Лицензия
  • Язык субтитров: Русские
  • Вид субтитров: Вшитые, отключаемые
  • Режиссер: Фернандо Гонзалез Молина
  • Продюссер: Мерседес Гамеро, Джозеп Аморос, Хуан Карлос Каро
  • Сценарий: Рамон Салазар, Федерико Моччиа
  • Дата мировой премьеры: 22 июня 2012
  • Дата российской премьеры: 5 июля 2012, «Каравелла DDC»
  • Дата выхода DVD / Blu-Ray релиза: 5 сентября 2012, «Кармен Видео», «ВС трейд»

  • В ролях: Марио Касас, Мария Вальверде, Клара Лаго, Андреа Дуро, Диего Мартин, Альваро Сервантес, Марина Салас, Луис Фернандез, Нереа Камачо, Ману Фульола
  • Описание:
    Проведя два года в Лондоне, Аче возвращается домой, чтобы начать новую жизнь: устроиться на работу, завести новых друзей. Однако многое изменилось и встреча с Джин заставляет Аче почувствовать то, что он чувствовал только к Баби — своей первой большой и настоящей любви...
  • Качество: BD-Remux
  • Формат: MKV
  • Видео кодек: MPEG-4 AVC/H.264
  • Аудио кодек: DTS
  • Видео: 1920x1080, 23.976 fps, ~18,6 mb/s
  • Аудио: Русский (DTS-HD MA, 6 ch, 1961 Кбит/с)




    Формат : Matroska
    Версия формата : Version 2
    Размер файла : 17,0 Гбайт
    Продолжительность : 2 ч. 3 м.
    Режим общего битрейта : Переменный
    Общий поток : 19,7 Мбит/сек
    Дата кодирования : UTC 2012-08-31 16:15:41
    Программа кодирования : mkvmerge v5.6.0 ('Kenya Kane') built on May 27 2012 16:44:04
    Библиотека кодирования : libebml v1.2.3 + libmatroska v1.3.0

    Видео
    Идентификатор : 1
    Формат : AVC
    Формат/Информация : Advanced Video Codec
    Профиль формата : High@L4.1
    Параметр CABAC формата : Да
    Параметр ReFrames формата : 4 кадра
    Параметр GOP формата : M=3, N=18
    Режим смешивания : Header stripping
    Идентификатор кодека : V_MPEG4/ISO/AVC
    Продолжительность : 2 ч. 3 м.
    Вид битрейта : Переменный
    Битрейт : 18,6 Мбит/сек
    Максимальный битрейт : 38,0 Мбит/сек
    Ширина : 1920 пикселей
    Высота : 1080 пикселей
    Соотношение сторон : 16:9
    Режим частоты кадров : Постоянный
    Частота кадров : 23,976 кадра/сек
    Стандарт вещания : NTSC
    Цветовое пространство : YUV
    Субдискретизация насыщенности : 4:2:0
    Битовая глубина : 8 бит
    Тип развёртки : Прогрессивная
    Бит/(Пиксели*Кадры) : 0.374
    Размер потока : 16,1 Гбайт (94%)
    Default : Да
    Forced : Нет
    Основные цвета : BT.709
    Характеристики трансфера : BT.709
    Коэффициенты матрицы : BT.709

    Аудио
    Идентификатор : 2
    Формат : DTS
    Формат/Информация : Digital Theater Systems
    Режим смешивания : Header stripping
    Идентификатор кодека : A_DTS
    Продолжительность : 2 ч. 3 м.
    Вид битрейта : Постоянный
    Битрейт : 755 Кбит/сек
    Каналы : 6 каналов
    Расположение каналов : Front: L C R, Side: L R, LFE
    Частота : 48,0 КГц
    Битовая глубина : 16 бит
    Метод сжатия : С потерями
    Размер потока : 667 Мбайт (4%)
    Заголовок : RUS
    Язык : Russian
    Default : Да
    Forced : Нет

    Текст
    Идентификатор : 3
    Формат : PGS
    Режим смешивания : zlib
    Идентификатор кодека : S_HDMV/PGS
    Идентификатор кодека/Информация : The same subtitle format used on BDs/HD-DVDs
    Заголовок : RUS
    Язык : Russian
    Default : Да
    Forced : Нет



  • Скачать Три метра над уровнем неба: Я тебя хочу через торрент https://pic1.kartinco.top/images/111/ewj9tbc8lw.png Скачать, смотреть онлайн Три метра над уровнем неба: Я тебя хочу бесплантно в хорошем качестве Описание: Проведя два года в Лондоне, Аче возвращается домой, чтобы начать новую жизнь: устроиться на работу, завести новых друзей. Однако ... 10 10 3
    Торрент: Зарегистрирован [2014-05-31 06:01] · скачан: 19 раз
    Статус: √ проверено
    Размер: 19.05 GB
    Как cкачать? Как скачать Три метра над уровнем неба: Я тебя хочу через торрент | UTorrent

    % Раздел Тема Автор DL S | L
    Фильмы 2012 [ 1.37 GB ] Три метра над уровнем неба: Я тебя хочу / Tengo ganas de ti | DUB | BDRip, DUB, лицензия MIXX_ON Скачать
    2 | 0
    Фильмы (DVD фильмы) [ 6.41 GB ] Три метра над уровнем неба: Я тебя хочу / Tengo ganas de ti | | Три метра над уровнем неба: Я тебя хочу / Tengo ganas de ti (Фернандо Гонзалез Молина / Fernando González Molina voovaz Скачать
    1 | 0
    Фильмы [HD 720p, 1080p] (Хороший звук DUB, MVO) [ 6.98 GB ] Три метра над уровнем неба: Я тебя хочу / Tengo ganas de ti | DUB | 720p, DUB, лицензия AlexKa Скачать
    1 | 0
    Фильмы 2012 [ 2.19 GB ] Три метра над уровнем неба: Я тебя хочу / Tengo ganas de ti | DUB | BDRip-AVC, DUB, лицензия -=Cherry=- Скачать
    1 | 0
    Видео для КПК и Смартфонов [ 962 MB ] Три метра над уровнем неба: Я тебя хочу / Tengo ganas de ti | DUB | DVDRip, DUB (Чистый звук aleksd72 Скачать
    1 | 0
    Фильмы 2012 [ 1.37 GB ] Три метра над уровнем неба: Я тебя хочу / engo ganas de ti | DUB | DVDRip, DUB [НТВ-Кинорейс Ворон Скачать
    1 | 0



    Последний раз редактировалось: Ворон (2014-05-31 06:00), всего редактировалось 2 раз(а)

    28-11-2019 20:33  


    Отключить вcю реклaмy на сайте, в т.ч. и в плеере онлайн просмотра!

    03-09-2012 07:52 Три метра над уровнем неба: Я тебя хочу Скачать торрент  

    По мне лучше скачать BDRip 720p за 6 гигов мне кажетсья никаких отличий нет



    03-09-2012 08:04 Три метра над уровнем неба: Я тебя хочу Скачать торрент  

    AlexKa писал(а):

    Видео: 1280x536

    http://pb.wtf/topic/89454

    Vetаl писал(а):

    Видео: 1920x1080,

    Согласен с вами,абсолютно никаких различий,если не присматриваться



    03-09-2012 17:32 Три метра над уровнем неба: Я тебя хочу Скачать торрент  

    Прикольный фильм советую посмотреть.



      Дорогой пользователь! Огромная просьба, поблагодарите релизера, оцените раздачу и оставьте свои комментарий, если Вы скачали Три метра над уровнем неба: Я тебя хочу через торрент бесплатно!!
      Комментировать посты могут только пользователи прошедшие не сложную регистрацию
      Показать сообщения:    


      Три метра над уровнем неба: Я тебя хочу через торрент
      Скачать бесплатно Три метра над уровнем неба: Я тебя хочу
      Три метра над уровнем неба: Я тебя хочу скачать торрент
      Три метра над уровнем неба: Я тебя хочу смотреть онлайн
      Cкачать фильм Три метра над уровнем неба: Я тебя хочу бесплатно
      Три метра над уровнем неба: Я тебя хочу скачать торрент в хорошем качестве
      Три метра над уровнем неба: Я тебя хочу смотреть онлайн бесплатно в хорошем качестве
      Вы не можете начинать темы
      Вы не можете отвечать на сообщения
      Вы не можете редактировать свои сообщения
      Вы не можете удалять свои сообщения
      Вы не можете голосовать в опросах
      Вы не можете прикреплять файлы к сообщениям
      Вы можете скачивать файлы
      Три метра над уровнем неба: Я тебя хочу / Tengo ganas de ti [2012 г., драма, мелодрама, BD-Remux, Дубляж, лицензия] смотреть онлайн, скачать торрент picoco.icu