Достать ножи: Стеклянная луковица

MVO

Добыча

Дубляж

Уэнсдэй

1 сезон

Тор

Дубляж

13 клиническая

1 сезон

Жестокая ночь

MVO

Одни из нас

1 сезон

Deluxe

pack

Рекомендуем

30

Пиратка

ВАЖНО

ВАЖНО

Ghostwire

Пиратка

jed

RePack

nioh2

RePack

RDR2

RePack

NEED FOR SPEED™ PAYBACK

RePack

скачать торрент

Кинопоиск HD

Острые козырьки 6 сезон

6 сезон

FAR CRY 6

RePack

скачать торрент

Лицензия

скачать торрент

MVO

1

1 сезон

скачать торрент

1 сезон

скачать торрент

Лицензия

  

Зелёная миля / The Green Mile (Фрэнк Дарабонт) [1999, фэнтези, драма, криминал, детектив, BD-Remux] Дубляж + MVO + AVO (Гаврилов) + Original + Commentary + SUB (Rus (R5), Eng)

Зелёная миля через торрент piratbit.org

Размер: 32.16 GB | Добавлен: 10 лет назад | Торрент скачан:70 раз
Смотреть онлайн | Скачать | Поддержите нас   

04-09-2012 03:22 Зелёная миля Скачать торрент  

Зелёная миля / The Green Mile

«Walk a mile you'll never forget.»

Год выпуска: 1999
Страна: США
Жанр: фэнтези, драма, криминал, детектив
Продолжительность: 03:08:37
Перевод: Дубляж + Многоголосый закадровый + Одноголосый закадровый (А.Гаврилов)
  • Режиссер: Фрэнк Дарабонт
  • Продюссер: Фрэнк Дарабонт, Дэвид Валдес
  • Сценарий: Фрэнк Дарабонт, Стивен Кинг
  • Композитор: Томас Ньюман
  • Бюджет: $60 000 000



В ролях: Том Хэнкс, Майкл Кларк Дункан, Дэвид Морс, Бонни Хант, Джеймс Кромуэлл, Майкл Джитер, Грэм Грин, Даг Хатчисон, Сэм Рокуэлл, Бэрри Пеппер

Описание: Обвиненный в страшном преступлении, Джон Коффи оказывается в блоке смертников тюрьмы «Холодная гора». Вновь прибывший обладал поразительным ростом и был пугающе спокоен, что, впрочем, никак не влияло на отношение к нему начальника блока Пола Эджкомба, привыкшего исполнять приговор.
Гигант удивил всех позже, когда выяснилось, что он обладает невероятной магической силой…
  • Качество: BD-Remux
  • Формат: BDAV
  • Видео кодек: VC-1
  • Аудио кодек: AC-3, DTS
  • Видео: VC-1, 1920x1080 (16:9), 23.976 fps
  • Аудио#1: AC-3, 48.0 KHz, 6 ch, 384 Kbps, CBR |Дубляж|
  • Аудио#2: AC-3, 48.0 KHz, 2 ch, 448 Kbps, CBR |Многоголосый закадровый|
  • Аудио#3: DTS MA / Core, 48.0 KHz, 6 ch, 1 561 Kbps / 1 510 Kbps, VBR |Одноголосый закадровый, А.Гаврилов|
  • Аудио#4: AC-3 TrueHD / Core, 48.0 KHz, 6 ch, Unknown / 640 Kbps, VBR / CBR |Original|
  • Аудио#5: AC-3 Dolby Digital, 48.0 KHz, 2 ch, 192 Kbps, CBR |Commentary by writer/director Frank Darabont|
  • Субтитры: Russian (R5), English

Скриншоты
скриншот  скриншот  скриншот  скриншот  




Код:

Общее
Идентификатор                            : 1 (0x1)
Полное имя                               : F:\PC Share\THE_GREEN_MILE\BDMV\STREAM\00000.m2ts
Формат                                   : BDAV
Формат/Информация                        : Blu-ray Video
Размер файла                             : 32,2 Гбайт
Продолжительность                        : 3 ч. 8 м.
Режим общего битрейта                    : Переменный
Общий поток                              : 24,4 Мбит/сек
Максимальный общий битрейт               : 35,5 Мбит/сек

Видео
Идентификатор                            : 4113 (0x1011)
Идентификатор меню                       : 1 (0x1)
Формат                                   : VC-1
Профиль формата                          : Advanced@L3
Идентификатор кодека                     : 234
Продолжительность                        : 3 ч. 8 м.
Ширина                                   : 1920 пикселей
Высота                                   : 1080 пикселей
Соотношение сторон                       : 16:9
Частота кадров                           : 23,976 кадра/сек
Субдискретизация насыщенности            : 4:2:0
Битовая глубина                          : 8 бит
Тип развёртки                            : Прогрессивная
Метод сжатия                             : С потерями

Аудио #1
Идентификатор                            : 4352 (0x1100)
Идентификатор меню                       : 1 (0x1)
Формат                                   : AC-3
Формат/Информация                        : Audio Coding 3
Расширение режима                        : CM (complete main)
Параметр Endianness формата              : Big
Идентификатор кодека                     : 129
Продолжительность                        : 3 ч. 8 м.
Вид битрейта                             : Постоянный
Битрейт                                  : 384 Кбит/сек
Каналы                                   : 6 каналов
Расположение каналов                     : Front: L C R, Side: L R, LFE
Частота                                  : 48,0 КГц
Битовая глубина                          : 16 бит
Метод сжатия                             : С потерями
Размер потока                            : 518 Мбайт (2%)
Язык                                     : Russian

Аудио #2
Идентификатор                            : 4353 (0x1101)
Идентификатор меню                       : 1 (0x1)
Формат                                   : AC-3
Формат/Информация                        : Audio Coding 3
Расширение режима                        : CM (complete main)
Параметр Endianness формата              : Big
Идентификатор кодека                     : 129
Продолжительность                        : 3 ч. 8 м.
Вид битрейта                             : Постоянный
Битрейт                                  : 448 Кбит/сек
Каналы                                   : 2 канала
Расположение каналов                     : Front: L R
Частота                                  : 48,0 КГц
Битовая глубина                          : 16 бит
Метод сжатия                             : С потерями
Размер потока                            : 604 Мбайт (2%)
Язык                                     : Russian

Аудио #3
Идентификатор                            : 4354 (0x1102)
Идентификатор меню                       : 1 (0x1)
Формат                                   : DTS
Формат/Информация                        : Digital Theater Systems
Профиль формата                          : MA / Core
Режим смешивания                         : Stream extension
Идентификатор кодека                     : 134
Продолжительность                        : 3 ч. 8 м.
Вид битрейта                             : Переменный
Битрейт                                  : 1561 Кбит/сек / 1510 Кбит/сек
Каналы                                   : 6 каналов
Расположение каналов                     : Front: L C R, Side: L R, LFE
Частота                                  : 48,0 КГц
Битовая глубина                          : 16 бит
Метод сжатия                             : Без потерь / Lossy
Язык                                     : Russian

Аудио #4
Идентификатор                            : 4355 (0x1103)
Идентификатор меню                       : 1 (0x1)
Формат                                   : TrueHD / AC-3
Расширение режима                        : CM (complete main)
Параметр Endianness формата              : Big
Режим смешивания                         : Stream extension
Идентификатор кодека                     : 131
Продолжительность                        : 3 ч. 8 м.
Вид битрейта                             : Переменный / Постоянный
Битрейт                                  : Неизвестно / 640 Кбит/сек
Максимальный битрейт                     : 3267 Кбит/сек / 640 Кбит/сек
Каналы                                   : 6 каналов
Расположение каналов                     : Front: L C R, Side: L R, LFE
Частота                                  : 48,0 КГц
Битовая глубина                          : 16 бит
Язык                                     : English

Аудио #5
Идентификатор                            : 4356 (0x1104)
Идентификатор меню                       : 1 (0x1)
Формат                                   : AC-3
Формат/Информация                        : Audio Coding 3
Профиль формата                          : Dolby Digital
Расширение режима                        : CM (complete main)
Параметр Endianness формата              : Big
Идентификатор кодека                     : 129
Продолжительность                        : 3 ч. 8 м.
Вид битрейта                             : Постоянный
Битрейт                                  : 192 Кбит/сек
Каналы                                   : 2 канала
Расположение каналов                     : Front: L R
Частота                                  : 48,0 КГц
Битовая глубина                          : 16 бит
Метод сжатия                             : С потерями
Размер потока                            : 259 Мбайт (1%)
Язык                                     : English

Текст #1
Идентификатор                            : 4608 (0x1200)
Идентификатор меню                       : 1 (0x1)
Формат                                   : PGS
Идентификатор кодека                     : 144
Язык                                     : Russian

Текст #2
Идентификатор                            : 4609 (0x1201)
Идентификатор меню                       : 1 (0x1)
Формат                                   : PGS
Идентификатор кодека                     : 144
Язык                                     : English


Релиз посвящается светлой памяти Майкла Кларка Дункана...



Скачать Зелёная миля через торрент https://pic1.kartinco.top/images/111/ipp99koomf.png Скачать, смотреть онлайн Зелёная миля бесплантно в хорошем качестве Описание: Обвиненный в страшном преступлении, Джон Коффи оказывается в блоке смертников тюрьмы «Холодная гора». Вновь прибывший обладал ... 10 10 11
× Info от релизера! Cветлой памяти Майкла Кларка Дункана... (10.12.1957—03.09.2012)
Info! Золотая раздача, скачанное не засчитывается.
Торрент: Зарегистрирован [2012-09-04 03:22] · скачан: 70 раз
Статус: √ проверено
Размер: 32.16 GB
Как cкачать? Как скачать Зелёная миля через торрент | UTorrent

% Раздел Тема Автор DL S | L
Фильмы (HD 720p, 1080p) (48-60 fps) [ 9.2 GB ] Зеленая миля / The Green Mile | Дубляж | 720p / 60 FPS slaventi-69 Скачать
1 | 0
Фильмы до 2000 г. [ 4.67 GB ] Зелёная миля / The Green Mile | MVO | BDRip killermax2013 Скачать
1 | 0
Фильмы (Blu-ray, BD-Remux, HDDVD) [ 59.68 GB ] Зеленая миля / The Green Mile | DUB | BD Remux 1080p bober100 Скачать
1 | 0
Фильмы до 2000 г. [ 3.66 GB ] Зелёная миля / The Green Mile | Мосфильм-Мастер | BDRip anton210896 Скачать
1 | 0
Фильмы до 2000 г. [ 2.9 GB ] Зеленая миля / Green Mile, The | | BDRip Anonymous Скачать
1 | 0
Фильмы до 2000 г. [ 1.45 GB ] Зелёная миля / The Green Mile | | BDRip-AVC dexter lex Скачать
1 | 0
Фильмы до 2000 г. [ 3.16 GB ] Зелёная миля / The Green Mile | DUB | HDRip killermax2013 Скачать
1 | 0

28-11-2019 20:33  


Отключить вcю реклaмy на сайте, в т.ч. и в плеере онлайн просмотра!

04-09-2012 05:15 Зелёная миля Скачать торрент  

Спасибо!!!Хороший был человек и актер......



04-09-2012 05:34 Зелёная миля Скачать торрент  

Хороший был актер!!!



04-09-2012 06:35 Зелёная миля Скачать торрент  

ДА,очень жаль...



04-09-2012 07:09 Зелёная миля Скачать торрент  

советую!



04-09-2012 08:23 Зелёная миля Скачать торрент  

rip
.....



04-09-2012 09:32 Зелёная миля Скачать торрент  

талантливый был человек.. Все фильмы с его участием хорошие. НО фильм зеленая миля навсегда останется у нас в памяти о нем.



21-01-2013 04:37 Зелёная миля Скачать торрент  

Один из лучших фильмов......



    Дорогой пользователь! Огромная просьба, поблагодарите релизера, оцените раздачу и оставьте свои комментарий, если Вы скачали Зелёная миля через торрент бесплатно!!
    Комментировать посты могут только пользователи прошедшие не сложную регистрацию
    Показать сообщения:    


    Зелёная миля через торрент
    Скачать бесплатно Зелёная миля
    Зелёная миля скачать торрент
    Зелёная миля смотреть онлайн
    Cкачать фильм Зелёная миля бесплатно
    Зелёная миля скачать торрент в хорошем качестве
    Зелёная миля смотреть онлайн бесплатно в хорошем качестве
    Вы не можете начинать темы
    Вы не можете отвечать на сообщения
    Вы не можете редактировать свои сообщения
    Вы не можете удалять свои сообщения
    Вы не можете голосовать в опросах
    Вы не можете прикреплять файлы к сообщениям
    Вы можете скачивать файлы
    Зелёная миля / The Green Mile [1999, фэнтези, драма, криминал, детектив, BD-Remux] Дубляж + MVO + AVO + Original + Commentary + SUB , Eng) смотреть онлайн, скачать торрент picoco.icu