Достать ножи: Стеклянная луковица

MVO

Добыча

Дубляж

Уэнсдэй

1 сезон

Тор

Дубляж

13 клиническая

1 сезон

Жестокая ночь

MVO

Одни из нас

1 сезон

Deluxe

pack

Рекомендуем

30

Пиратка

ВАЖНО

ВАЖНО

Ghostwire

Пиратка

jed

RePack

nioh2

RePack

RDR2

RePack

NEED FOR SPEED™ PAYBACK

RePack

скачать торрент

Кинопоиск HD

Острые козырьки 6 сезон

6 сезон

FAR CRY 6

RePack

скачать торрент

Лицензия

скачать торрент

MVO

1

1 сезон

скачать торрент

1 сезон

скачать торрент

Лицензия

  

Пункт назначения 5 / Final Destination 5 (Стивен Куэйл) [2011 г., ужасы, триллер, Blu-ray 1080p, Дубляж, лицензия]

Пункт назначения 5 через торрент piratbit.org

Размер: 19.99 GB | Добавлен: 10 лет назад | Торрент скачан:36 раз
Смотреть онлайн | Скачать | Поддержите нас   

05-09-2012 04:37 Пункт назначения 5 Скачать торрент  

Пункт назначения 5 / Final Destination 5

Год выпуска: 2011
Страна: США
Жанр: ужасы, триллер
Продолжительность: 01:31:51
Перевод: Дубляж, Лицензия

Режиссер: Стивен Куэйл
Продюссер: Крэйг Перри, Уоррен Зайд, Ричард Бренер
Сценарий: Эрик Хайссерер, Джеффри Реддик

Бюджет: $40 000 000

лицам до 17 лет обязательно присутствие взрослого
Мировой рейтинг IMDB 5.90 (40 949)


В ролях: Николас Д’Агосто, Эмма Белл, Майлз Фишер, Эллен Ро, Жаклин МакИннес Вуд, П.Дж. Бирн, Арлен Эскарпета, Дэвид Кокнер, Кортни Б. Вэнс, Тони Тодд, Даниил Эльдаров, Евгений Вальц, Мария Иващенко, Ирина Киреева, Диомид Виноградов

Описание: У Сэма Лоутона происходит жуткое видение: подвесной мост, на котором он находится со своими друзьями, рушится, и многие люди, включая его самого, погибают. Сэм начинает паниковать и уговаривает своих друзей и ещё нескольких «счастливчиков» уйти с моста. И как раз вовремя: как и предвидел Сэм, мост рушится на их глазах и множество людей погибает. Однако Сэм и его девушка Молли понимают, что смерть дала им лишь отсрочку, так как выжившие начинают погибать один за другим. Он должен понять, как обманув смерть однажды, обмануть её ещё раз, прежде чем настанет его очередь.

Качество: Blu-ray 1080p
Формат: BDMV
Видео кодек: H.264
Аудио кодек: AC3
Видео: MPEG-4 AVC Video / 17023 kbps / 1080p / 23,976 fps / 16:9 / High Profile 4.1
Аудио#1: Russian / Dolby Digital Audio / 5.1 / 48 kHz / 640 kbps / DN -4dB
Аудио#2: Ukrainian / Dolby Digital Audio / 5.1 / 48 kHz / 640 kbps / DN -4dB
Аудио#3: English / DTS-HD Master Audio / 5.1 / 48 kHz / 3683 kbps / 24-bit (DTS Core: 5.1 / 48 kHz / 1509 kbps / 24-bit)
Бонусы: перевод субтитры
- Альтернативнык сцены смерти
- Визуальные эффекты смерти
- Два фильма о спецэффектах в режиме "кадр в кадре": Обрушивающийся мост, Авария самолета
- Пункт назначения 5: Круг смерти, ваш "Пункт Назначения"

Общее
Идентификатор : 0 (0x0)
Полное имя : E:\FINAL_DESTINATION_5_2D\BDMV\STREAM\00020.m2ts
Формат : BDAV
Формат/Информация : Blu-ray Video
Размер файла : 16,8 Гбайт
Продолжительность : 1 ч. 31 м.
Режим общего битрейта : Переменный
Общий поток : 26,2 Мбит/сек
Максимальный общий битрейт : 48,0 Мбит/сек

Видео
Идентификатор : 4113 (0x1011)
Идентификатор меню : 1 (0x1)
Формат : AVC
Формат/Информация : Advanced Video Codec
Профиль формата : High@L4.1
Параметр CABAC формата : Да
Параметр ReFrames формата : 2 кадра
Идентификатор кодека : 27
Продолжительность : 1 ч. 31 м.
Вид битрейта : Переменный
Битрейт : 19,0 Мбит/сек
Ширина : 1920 пикселей
Высота : 1080 пикселей
Соотношение сторон : 16:9
Частота кадров : 23,976 кадра/сек
Цветовое пространство : YUV
Субдискретизация насыщенности : 4:2:0
Битовая глубина : 8 бит
Тип развёртки : Прогрессивная
Бит/(Пиксели*Кадры) : 0.382
Размер потока : 12,2 Гбайт (72%)

Аудио #1
Идентификатор : 4352 (0x1100)
Идентификатор меню : 1 (0x1)
Формат : DTS
Формат/Информация : Digital Theater Systems
Профиль формата : MA / Core
Режим смешивания : Stream extension
Идентификатор кодека : 134
Продолжительность : 1 ч. 31 м.
Вид битрейта : Переменный
Битрейт : 2704 Кбит/сек / 1510 Кбит/сек
Каналы : 6 каналов
Расположение каналов : Front: L C R, Side: L R, LFE
Частота : 48,0 КГц
Битовая глубина : 24 бит
Метод сжатия : Без потерь / Lossy

Аудио #2
Идентификатор : 4353 (0x1101)
Идентификатор меню : 1 (0x1)
Формат : AC-3
Формат/Информация : Audio Coding 3
Расширение режима : CM (complete main)
Параметр Endianness формата : Big
Идентификатор кодека : 129
Продолжительность : 1 ч. 31 м.
Вид битрейта : Постоянный
Битрейт : 640 Кбит/сек
Каналы : 6 каналов
Расположение каналов : Front: L C R, Side: L R, LFE
Частота : 48,0 КГц
Битовая глубина : 16 бит
Метод сжатия : С потерями
Размер потока : 420 Мбайт (2%)

Аудио #3
Идентификатор : 4354 (0x1102)
Идентификатор меню : 1 (0x1)
Формат : AC-3
Формат/Информация : Audio Coding 3
Расширение режима : CM (complete main)
Параметр Endianness формата : Big
Идентификатор кодека : 129
Продолжительность : 1 ч. 31 м.
Вид битрейта : Постоянный
Битрейт : 640 Кбит/сек
Каналы : 6 каналов
Расположение каналов : Front: L C R, Side: L R, LFE
Частота : 48,0 КГц
Битовая глубина : 16 бит
Метод сжатия : С потерями
Размер потока : 420 Мбайт (2%)

Аудио #4
Идентификатор : 4355 (0x1103)
Идентификатор меню : 1 (0x1)
Формат : AC-3
Формат/Информация : Audio Coding 3
Расширение режима : CM (complete main)
Параметр Endianness формата : Big
Идентификатор кодека : 129
Продолжительность : 1 ч. 31 м.
Вид битрейта : Постоянный
Битрейт : 640 Кбит/сек
Каналы : 6 каналов
Расположение каналов : Front: L C R, Side: L R, LFE
Частота : 48,0 КГц
Битовая глубина : 16 бит
Метод сжатия : С потерями
Размер потока : 420 Мбайт (2%)

Аудио #5
Идентификатор : 4356 (0x1104)
Идентификатор меню : 1 (0x1)
Формат : AC-3
Формат/Информация : Audio Coding 3
Расширение режима : CM (complete main)
Параметр Endianness формата : Big
Идентификатор кодека : 129
Продолжительность : 1 ч. 31 м.
Вид битрейта : Постоянный
Битрейт : 640 Кбит/сек
Каналы : 6 каналов
Расположение каналов : Front: L C R, Side: L R, LFE
Частота : 48,0 КГц
Битовая глубина : 16 бит
Метод сжатия : С потерями
Размер потока : 420 Мбайт (2%)

Аудио #6
Идентификатор : 4357 (0x1105)
Идентификатор меню : 1 (0x1)
Формат : AC-3
Формат/Информация : Audio Coding 3
Профиль формата : Dolby Digital
Расширение режима : CM (complete main)
Параметр Endianness формата : Big
Идентификатор кодека : 129
Продолжительность : 1 ч. 31 м.
Вид битрейта : Постоянный
Битрейт : 192 Кбит/сек
Каналы : 2 канала
Расположение каналов : Front: L R
Частота : 48,0 КГц
Битовая глубина : 16 бит
Метод сжатия : С потерями
Размер потока : 126 Мбайт (1%)

Аудио #7
Идентификатор : 4358 (0x1106)
Идентификатор меню : 1 (0x1)
Формат : AC-3
Формат/Информация : Audio Coding 3
Расширение режима : CM (complete main)
Параметр Endianness формата : Big
Идентификатор кодека : 129
Продолжительность : 1 ч. 31 м.
Вид битрейта : Постоянный
Битрейт : 640 Кбит/сек
Каналы : 6 каналов
Расположение каналов : Front: L C R, Side: L R, LFE
Частота : 48,0 КГц
Битовая глубина : 16 бит
Метод сжатия : С потерями
Размер потока : 420 Мбайт (2%)

Текст #1
Идентификатор : 4608 (0x1200)
Идентификатор меню : 1 (0x1)
Формат : PGS
Идентификатор кодека : 144

Текст #2
Идентификатор : 4609 (0x1201)
Идентификатор меню : 1 (0x1)
Формат : PGS
Идентификатор кодека : 144

Текст #3
Идентификатор : 4610 (0x1202)
Идентификатор меню : 1 (0x1)
Формат : PGS
Идентификатор кодека : 144




Скачать Пункт назначения 5 через торрент http://i42.fastpic.ru/big/2012/0905/2a/8bc4f38f608d1e9418f47ace4104212a.jpeg Скачать, смотреть онлайн Пункт назначения 5 бесплантно в хорошем качестве Описание: У Сэма Лоутона происходит жуткое видение: подвесной мост, на котором он находится со своими друзьями, рушится, и многие люди, ... 5 10 1
Info! Золотая раздача, скачанное не засчитывается.
Торрент: Зарегистрирован [2012-09-05 04:37] · скачан: 36 раз
Статус: √ проверено
Размер: 19.99 GB
Как cкачать? Как скачать Пункт назначения 5 через торрент | UTorrent

% Раздел Тема Автор DL S | L
3D Фильмы [ 14.89 GB ] Пункт назначения 5 в 3Д / Final Destination 5 3D | | 1080p serega768 Скачать
1 | 0
Фильмы [HD 720p, 1080p] (Хороший звук DUB, MVO) [ 3.78 GB ] Пункт назначения 5 / Final Destination 5 | Дубляж | 1080p, HEVC (10Bit Мичман37 Скачать
1 | 0
Сборники на DVD и Сиквелы [DVDrip, WEB-DLRip, HDrip, BDRip] [ 3.64 GB ] Пункт назначения 1, 2, 3, 4, 5 / Final Destination 1, 2, 3, 4, 5 | DUB | BDRip ACFIORENTINA Скачать
1 | 0
Фильмы [HD 720p, 1080p] (Хороший звук DUB, MVO) [ 7.76 GB ] Пункт назначения 5 / Final Destination 5 | Дубляж + Оригинал | 1080p, Дубляж + Оригинал Бумер Скачать
1 | 0
3D Фильмы [ 5.91 GB ] Пункт назначения 5 3D / Final Destination 5 3D | | 1080p slaventi-69 Скачать
1 | 0
Фильмы [HD 720p, 1080p] (Хороший звук DUB, MVO) [ 4.11 GB ] Пункт назначения 5 / Final Destination 5 | | 720p m9sо Скачать
1 | 0
Фильмы 2011 [ 2.1 GB ] Пункт назначения 5 / Final Destination 5 | DUB | HDRip-AVC stalonе Скачать
1 | 0



Последний раз редактировалось: Pavlin (2012-09-08 05:39), всего редактировалось 4 раз(а)

28-11-2019 20:33  


Отключить вcю реклaмy на сайте, в т.ч. и в плеере онлайн просмотра!

05-09-2012 09:04 Пункт назначения 5 Скачать торрент  

Мясная киношка



05-09-2012 10:23 Пункт назначения 5 Скачать торрент  

pavlin14
1. Укажи правильно качество! Это не BDRip, а Blu-ray
2. Продолжительность укажи в формате ЧЧ:ММ:СС
3. Добавь MediaInfo (здесь присутствует BDInfo, а не MediaInfo)

--> Здесь подоробнее о MediaInfo и BDInfo <--
Для изменения статуса раздачи, после исправления уведомить в со ссылкой на раздачу



    Дорогой пользователь! Огромная просьба, поблагодарите релизера, оцените раздачу и оставьте свои комментарий, если Вы скачали Пункт назначения 5 через торрент бесплатно!!
    Комментировать посты могут только пользователи прошедшие не сложную регистрацию
    Показать сообщения:    


    Пункт назначения 5 через торрент
    Скачать бесплатно Пункт назначения 5
    Пункт назначения 5 скачать торрент
    Пункт назначения 5 смотреть онлайн
    Cкачать фильм Пункт назначения 5 бесплатно
    Пункт назначения 5 скачать торрент в хорошем качестве
    Пункт назначения 5 смотреть онлайн бесплатно в хорошем качестве
    Вы не можете начинать темы
    Вы не можете отвечать на сообщения
    Вы не можете редактировать свои сообщения
    Вы не можете удалять свои сообщения
    Вы не можете голосовать в опросах
    Вы не можете прикреплять файлы к сообщениям
    Вы можете скачивать файлы
    Пункт назначения 5 / Final Destination 5 [2011 г., ужасы, триллер, Blu-ray 1080p, Дубляж, лицензия] смотреть онлайн, скачать торрент picoco.icu