Ссылка на приватное зеркало нашего сайта всего за 1$. Внимание количество ограничено!!!

2 сезон

iTunes

iTunes

1

iTunes

iTunes

iTunes

WEBRip

iTunes

30
pack

Забери бонус

ВАЖНО

!!Акция!!

Alien_RageХит недели

RePack

RESIDENT EVIL 3: NEMESIS REMAKE

ИГРА 18+

pack

RePack

jed

!!Акция!!

Alien_Rage

RePack

fifa19

RePack

Assassins Creed: Odyssey

RePack

NEED FOR SPEED™ PAYBACK

4 сезон

9 сезон

Бесстыжие 9 сезон

Все сериалы

все сериалы на PB.wtf

RePack

FAR CRY 5
  

25 каратов / 25 kilates (Patxi Amezcua) [2008 г., триллер, DVDRip, MVO, лицензия] piratbit.org

25 каратов через торрент piratbit.org

Размер: 1.37 GB | Добавлен: 8 лет назад | Торрент скачан:63 раза
Скачать  

05-09-2012 15:06 25 каратов Скачать торрент  

25 каратов / 25 kilates

Год выпуска: 2008
Страна: Испания
Жанр: триллер
Продолжительность: 01:24:19
Перевод: Профессиональный многоголосый, Лицензия

Режиссер: Patxi Amezcua
Продюссер: Quique Camin, Jose Nolla
Сценарий: Patxi Amezcua

Премьера в мире: 29 октября 2008

Мировой рейтинг IMDB 6.50 (213)


В ролях: Франческ Гарридо, Аида Фолч, Мануэль Морон, Joan Massotkleiner, Эктор Коломе, Монтсеррат Сальвадор, Игнаси Абадаль, Мария Ланау, Ферран Терраза, Франциско Торренте

Описание: Большой город. Жестокий преступный мир Барселоны. Главные герои фильма — «железная» девушка Кей и головорез Абель — составляют одну из самых преступных пар этого мира пройдох, мошенников, воров и продажных полицейских.

Качество: DVDRip
Формат: AVI
Видео кодек: XviD
Аудио кодек: AC3
Видео: 720x400 (1.80:1), 25 fps, XviD build 47 ~2055 kbps avg, 0.29 bit/pixel
Аудио#1: 48 kHz, AC3 Dolby Digital, 3/2 (L,C,R,l,r) + LFE ch, ~256.00 kbps avg





Общее
Полное имя : E:\Торренты\Piratbit\25 kilates.avi
Формат : AVI
Формат/Информация : Audio Video Interleave
Размер файла : 1,37 Гбайт
Продолжительность : 1 ч. 24 м.
Общий поток : 2321 Кбит/сек
Программа кодирования : VirtualDubMod 1.5.10.2 (build 2540/release)

Видео
Идентификатор : 0
Формат : MPEG-4 Visual
Профиль формата : Advanced Simple@L5
Параметр BVOP формата : 2
Параметр QPel формата : Нет
Параметр GMC формата : Без точки перехода
Параметр матрицы формата : Default (H.263)
Идентификатор кодека : XVID
Идентификатор кодека/Подсказка : XviD
Продолжительность : 1 ч. 24 м.
Битрейт : 2055 Кбит/сек
Ширина : 720 пикселей
Высота : 400 пикселей
Соотношение сторон : 16:9
Частота кадров : 25,000 кадров/сек
Цветовое пространство : YUV
Субдискретизация насыщенности : 4:2:0
Битовая глубина : 8 бит
Тип развёртки : Прогрессивная
Метод сжатия : С потерями
Бит/(Пиксели*Кадры) : 0.285
Размер потока : 1,21 Гбайт (89%)
Библиотека кодирования : XviD 1.2.0.dev47 (UTC 2006-11-01)

Аудио
Идентификатор : 1
Формат : AC-3
Формат/Информация : Audio Coding 3
Расширение режима : CM (complete main)
Параметр Endianness формата : Big
Идентификатор кодека : 2000
Продолжительность : 1 ч. 24 м.
Вид битрейта : Постоянный
Битрейт : 256 Кбит/сек
Каналы : 6 каналов
Расположение каналов : Front: L C R, Side: L R, LFE
Частота : 48,0 КГц
Битовая глубина : 16 бит
Метод сжатия : С потерями
Размер потока : 154 Мбайт (11%)
Выравнивание : Разделение по промежуткам
Продолжительность промежутка : 40 мс. (1,00 видеокадр)
Время предзагрузки промежутка : 500 мс.

piratbit.org



Скачать 25 каратов через торрент http://pic.kartinco.top/images/1/inr1wwifdl.jpg Скачать фильм 25 каратов через торрент бесплантно в хорошем качестве Описание: Большой город. Жестокий преступный мир Барселоны. Главные герои фильма — «железная» девушка Кей и головорез Абель — составляют ... 5 10 1
Info! Золотая раздача, скачанное не засчитывается.
Торрент: Зарегистрирован [2012-09-05 15:06] · скачан: 63 раз
Статус: # сомнительно
Размер: 1.37 GB
Как cкачать? Как скачать 25 каратов через торрент | qTorrent

% Раздел Тема Автор DL S | L
Фильмы 2006-2008 [ 1.37 GB ] 25 каратов / 25 kilates [2008 DVDRip] [ лицензия ] MIO2008 Скачать
1 | 0
Фильмы (DVD фильмы) [ 6.33 GB ] 25 каратов / 25 kilates [2008 DVD9] nickson-82 Скачать
1 | 0

28-11-2019 20:33  

Отключить всю рекламу на сайте

05-09-2012 16:05 25 каратов Скачать торрент  

Аудио#1: 48 kHz, AC3 Dolby Digital, 3/2 (L,C,R,l,r) + LFE ch, ~256.00 kbps avg

Битрейты аудидорожек AC3 рекомендуемые для качественного исходного звука
для многоканального звука: минимум 320Kbps, для .avi максимум 448
piratbit.org



05-09-2012 18:55 25 каратов Скачать торрент  

как фильм?":piratbit.org



    Дорогой пользователь! Огромная просьба, поблагодарите релизера, оцените раздачу и оставьте свои комментарий, если Вы скачали 25 каратов через торрент бесплатно! Внесите свою лепту в развитие PiratBit!
    Комментировать посты могут только пользователи прошедшие не сложную регистрацию
    Показать сообщения:    

    25 каратов через торрент
    Скачать бесплатно 25 каратов
    25 каратов скачать торрент
    25 каратов смотреть онлайн
    Cкачать фильм 25 каратов бесплатно
    25 каратов скачать торрент в хорошем качестве
    25 каратов смотреть онлайн бесплатно в хорошем качестве


    Вы не можете начинать темы
    Вы не можете отвечать на сообщения
    Вы не можете редактировать свои сообщения
    Вы не можете удалять свои сообщения
    Вы не можете голосовать в опросах
    Вы не можете прикреплять файлы к сообщениям
    Вы можете скачивать файлы