Достать ножи: Стеклянная луковица

MVO

Добыча

Дубляж

Уэнсдэй

1 сезон

Тор

Дубляж

13 клиническая

1 сезон

Жестокая ночь

MVO

Одни из нас

1 сезон

Deluxe

pack

Рекомендуем

30

Пиратка

ВАЖНО

ВАЖНО

Ghostwire

Пиратка

jed

RePack

nioh2

RePack

RDR2

RePack

NEED FOR SPEED™ PAYBACK

RePack

скачать торрент

Кинопоиск HD

Острые козырьки 6 сезон

6 сезон

FAR CRY 6

RePack

скачать торрент

Лицензия

скачать торрент

MVO

1

1 сезон

скачать торрент

1 сезон

скачать торрент

Лицензия

  

Пятница / Friday (Ф. Гэри Грей) [1995 г., драма, комедия, BD-Remux, MVO] / Режиссерская версия

Пятница через торрент piratbit.org

Размер: 17.12 GB | Добавлен: 10 лет назад | Торрент скачан:19 раз
Смотреть онлайн | Скачать | Поддержите нас   

06-09-2012 21:22 Пятница Скачать торрент  

Пятница / Friday

Год выпуска: 1995
Страна: США
Жанр: драма, комедия
Продолжительность: 01:37:06
Перевод: Профессиональный многоголосый

Режиссер: Ф. Гэри Грей
Продюссер: Патриция Шарбоннэ, У.Е. Бэйкер, Айс Кьюб
Сценарий: Айс Кьюб, Ди-Джей Пух

Премьера в мире: 26 апреля 1995

лицам до 17 лет обязательно присутствие взрослого
Мировой рейтинг IMDB 7.10 (37 745)


В ролях: Айс Кьюб, Крис Такер, Ниа Лонг, Том ’Тайни’ Листер мл., Джон Уизерспун, Анна Мария Хорсфорд, Реджина Кинг, Пола Джей Паркер, Фэйзон Лав, Ди-Джей Пух

Описание: Забавная бытовая комедия, действие которой происходит в пятницу в одном из районов Лос-Анджелеса — Южном Централе. Крэйг и Смоки — два приятеля, любящих посидеть вечерком на пороге своего дома, выпить, покурить, поглазеть на улицу.Но сегодня у них возникла одна проблема: взяв на продажу порцию «травки», они не удержались и раскурили ее сами. Но за удовольствие надо платить — к 10 часам вечера им необходимого раздобыть 200 долларов, чтобы отдать их наркодилеру.

Доп. информация:(Режиссёрская версия). Длительность режиссерской версии на 6 мин. больше. Поэтому присутствуют фрагменты без перевода, в основном в начале фильма. Отсутствие звукового перевода этих фрагментов компенсируется русскими субтитрами.

Качество: BD-Remux
Формат: MKV
Видео кодек: VC-1
Аудио кодек: AC3
Видео: VC-1 / NTSC 16:9 / 1920x1080 (1.78:1) / 21776 kbps / 23,976 fps / 0.450 bit/pixel / Advanced@L3
Аудио#1: Russian / AC3 / 48 kHz / 2 Ch / 192 kbps / 16 bit / MVO (РТР)
Аудио#2: Russian / AC3 / 48 kHz / 5.1 Ch / 384 kbps / 16 bit / AVO (Санаев)
Аудио#3: Russian / AC3 / 48 kHz / 2 Ch / 192 kbps / 16 bit / [Диктор CDV]
Аудио#4: English / DTS-HD Master Audio / 7.1 Ch / 48 kHz / 1597 kbps / 16-bit (DTS Core: 5.1 Ch / 48 kHz / 1510 kbps / 16-bit)
Субтитры:Русские(forced), Английские (SDH)

Общее
Уникальный идентификатор : 236580329818264596471065999924919310705 (0xB1FBB6D234ED6D6A846EEEE7DD809971)
Полное имя : E:\Friday.1995.Director's Cut.BDRemux.1080p.mkv
Формат : Matroska
Версия формата : Version 2
Размер файла : 17,1 Гбайт
Продолжительность : 1 ч. 37 м.
Режим общего битрейта : Переменный
Общий поток : 25,2 Мбит/сек
Дата кодирования : UTC 2012-09-03 19:48:53
Программа кодирования : mkvmerge v5.8.0 ('No Sleep / Pillow') built on Sep 2 2012 15:37:04
Библиотека кодирования : libebml v1.2.3 + libmatroska v1.3.0

Видео
Идентификатор : 1
Формат : VC-1
Профиль формата : Advanced@L3
Идентификатор кодека : V_MS/VFW/FOURCC / WVC1
Идентификатор кодека/Подсказка : Microsoft
Продолжительность : 1 ч. 37 м.
Битрейт : 22,4 Мбит/сек
Ширина : 1920 пикселей
Высота : 1080 пикселей
Соотношение сторон : 16:9
Режим частоты кадров : Постоянный
Частота кадров : 23,976 кадра/сек
Субдискретизация насыщенности : 4:2:0
Битовая глубина : 8 бит
Тип развёртки : Прогрессивная
Метод сжатия : С потерями
Бит/(Пиксели*Кадры) : 0.450
Размер потока : 15,2 Гбайт (89%)
Default : Да
Forced : Нет

Аудио #1
Идентификатор : 2
Формат : AC-3
Формат/Информация : Audio Coding 3
Расширение режима : CM (complete main)
Параметр Endianness формата : Big
Идентификатор кодека : A_AC3
Продолжительность : 1 ч. 37 м.
Вид битрейта : Постоянный
Битрейт : 192 Кбит/сек
Каналы : 2 канала
Расположение каналов : Front: L R
Частота : 48,0 КГц
Битовая глубина : 16 бит
Метод сжатия : С потерями
Размер потока : 133 Мбайт (1%)
Заголовок : MVO
Язык : Russian
Default : Да
Forced : Нет

Аудио #2
Идентификатор : 3
Формат : AC-3
Формат/Информация : Audio Coding 3
Расширение режима : CM (complete main)
Параметр Endianness формата : Big
Идентификатор кодека : A_AC3
Продолжительность : 1 ч. 37 м.
Вид битрейта : Постоянный
Битрейт : 384 Кбит/сек
Каналы : 6 каналов
Расположение каналов : Front: L C R, Side: L R, LFE
Частота : 48,0 КГц
Битовая глубина : 16 бит
Метод сжатия : С потерями
Размер потока : 267 Мбайт (2%)
Заголовок : Санаев
Язык : Russian
Default : Нет
Forced : Нет

Аудио #3
Идентификатор : 4
Формат : AC-3
Формат/Информация : Audio Coding 3
Расширение режима : CM (complete main)
Параметр Endianness формата : Big
Идентификатор кодека : A_AC3
Продолжительность : 1 ч. 37 м.
Вид битрейта : Постоянный
Битрейт : 192 Кбит/сек
Каналы : 2 канала
Расположение каналов : Front: L R
Частота : 48,0 КГц
Битовая глубина : 16 бит
Метод сжатия : С потерями
Размер потока : 133 Мбайт (1%)
Заголовок : [Диктор CDV]
Язык : Russian
Default : Нет
Forced : Нет

Аудио #4
Идентификатор : 5
Формат : DTS
Формат/Информация : Digital Theater Systems
Профиль формата : MA / Core
Идентификатор кодека : A_DTS
Продолжительность : 1 ч. 37 м.
Вид битрейта : Переменный
Битрейт : 1597 Кбит/сек / 1510 Кбит/сек
Каналы : 8 каналов / 6 каналов
Расположение каналов : Front: L C R, Side: L R, Back: L R, LFE / Front: L C R, Side: L R, LFE
Частота : 48,0 КГц
Битовая глубина : 16 бит
Метод сжатия : Без потерь / Lossy
Заголовок : Original
Язык : English
Default : Нет
Forced : Нет

Текст #1
Идентификатор : 6
Формат : UTF-8
Идентификатор кодека : S_TEXT/UTF8
Идентификатор кодека/Информация : UTF-8 Plain Text
Заголовок : Forced
Язык : Russian
Default : Да
Forced : Нет

Текст #2
Идентификатор : 7
Формат : UTF-8
Идентификатор кодека : S_TEXT/UTF8
Идентификатор кодека/Информация : UTF-8 Plain Text
Заголовок : Original
Язык : English
Default : Нет
Forced : Нет




Скачать Пятница через торрент http://i42.fastpic.ru/big/2012/0906/62/95c6369cf96afcf776f47c3e04924962.jpg Скачать, смотреть онлайн Пятница бесплантно в хорошем качестве Описание: Забавная бытовая комедия, действие которой происходит в пятницу в одном из районов Лос-Анджелеса — Южном Централе. Крэйг и Смоки ... 10 10 3
Info! Золотая раздача, скачанное не засчитывается.
Торрент: Зарегистрирован [2012-09-06 21:22] · скачан: 19 раз
Статус: √ проверено
Размер: 17.12 GB
Как cкачать? Как скачать Пятница через торрент | UTorrent

28-11-2019 20:33  


Отключить вcю реклaмy на сайте, в т.ч. и в плеере онлайн просмотра!

    Дорогой пользователь! Огромная просьба, поблагодарите релизера, оцените раздачу и оставьте свои комментарий, если Вы скачали Пятница через торрент бесплатно!!
    Комментировать посты могут только пользователи прошедшие не сложную регистрацию
    Показать сообщения:    


    Пятница через торрент
    Скачать бесплатно Пятница
    Пятница скачать торрент
    Пятница смотреть онлайн
    Cкачать фильм Пятница бесплатно
    Пятница скачать торрент в хорошем качестве
    Пятница смотреть онлайн бесплатно в хорошем качестве
    Вы не можете начинать темы
    Вы не можете отвечать на сообщения
    Вы не можете редактировать свои сообщения
    Вы не можете удалять свои сообщения
    Вы не можете голосовать в опросах
    Вы не можете прикреплять файлы к сообщениям
    Вы можете скачивать файлы
    Пятница / Friday [1995 г., драма, комедия, BD-Remux, MVO] / Режиссерская версия смотреть онлайн, скачать торрент picoco.icu