Достать ножи: Стеклянная луковица

MVO

Добыча

Дубляж

Уэнсдэй

1 сезон

Тор

Дубляж

13 клиническая

1 сезон

Жестокая ночь

MVO

Одни из нас

1 сезон

Deluxe

pack

Рекомендуем

30

Пиратка

ВАЖНО

ВАЖНО

Ghostwire

Пиратка

jed

RePack

nioh2

RePack

RDR2

RePack

NEED FOR SPEED™ PAYBACK

RePack

скачать торрент

Кинопоиск HD

Острые козырьки 6 сезон

6 сезон

FAR CRY 6

RePack

скачать торрент

Лицензия

скачать торрент

MVO

1

1 сезон

скачать торрент

1 сезон

скачать торрент

Лицензия

  

Люди в черном 3 / Men in Black 3 (Барри Зонненфельд) [2012 г., фантастика, боевик, комедия, приключения, Blu-ray CEE, Дубляж + Оригинал]

Люди в черном 3 через торрент piratbit.org

Размер: 44.69 GB | Добавлен: 10 лет назад | Торрент скачан:145 раз
Смотреть онлайн | Скачать | Поддержите нас   

08-09-2012 11:34 Люди в черном 3 Скачать торрент  

Люди в черном 3 / Men in Black 3

Год выпуска: 2012
Страна: США
Жанр: фантастика, боевик, комедия, приключения
Продолжительность: 01:45:50
Перевод: Дубляж + Оригинал

Режиссер: Барри Зонненфельд
Продюссер: Лори МакДональд, Уолтер Ф. Паркс, Дж. Мак Браун
Сценарий: Итан Коэн, Лоуелл Каннингэм

Бюджет: $225 000 000
Премьера в мире: 14 мая 2012

детям до 13 лет просмотр не желателен
Мировой рейтинг IMDB 7.10 (65 688)


В ролях: Уилл Смит, Джош Бролин, Томми Ли Джонс, Джемейн Клемент, Майкл Стулбарг, Эмма Томпсон, Элис Ив, Майк Колтер, Билл Хэйдер, Майкл Чернус, Николь Шерзингер, Дэвид Раш, Кион Янг, Кайен Мартин, Кларк Торелл, Адам Муччи, Том МакКомас, Дуглас Кросби, Вуди Кинг мл., Джек О`Коннелл, Тобиаш Сигал, Джон Шэйвер, Герритт Вэндэрмир, Александра О`Хара, Виолет О`Хара, Вэленс Томас, Хлоя Сонненфельд, Лэнни Флаэрти, Джонатан О`Хара, Рик Бэйкер, Джо Д`Онофрио, Джозеф Р. Ганнасколи, Кэти Фрейм, Кевин Таунли, Стефен Брайан Джонс, Тайлер Джонсон

Описание: Агент Джей узнает, что никакого защитного галактического щита, способного отразить иноземный удар, не существует. Агент Кей не построил его, потому что был убит в 1969 году. Агент Джей должен совершить путешествие во времени, чтобы спасти Землю и жизнь напарника.



Качество: Blu-ray
Формат: BDMV
Видео кодек: H.264
Аудио кодек: AC3/DTS-HD
Видео: MPEG-4 AVC, 27.9 Мбит/с, 1920x1080, 23.976 кадр/с
Аудио#1: Английский; DTS-HD Master Audio / 5.1 / 48 kHz / 2403 kbps
Аудио#2: Чешский; Dolby Digital Audio / 5.1 / 48 kHz / 640 kbps
Аудио#3:Хинди; Dolby Digital Audio / 5.1 / 48 kHz / 640 kbps
Аудио#4:Венгерский; Dolby Digital Audio / 5.1 / 48 kHz / 640 kbps
Аудио#5:Казахский; Dolby Digital Audio / 5.1 / 48 kHz / 640 kbps
Аудио#6:Польский; Dolby Digital Audio / 5.1 / 48 kHz / 640 kbps
Аудио#7:Русский; Dolby Digital Audio / 5.1 / 48 kHz / 640 kbps
Аудио#8:Тамильский; Dolby Digital Audio / 5.1 / 48 kHz / 640 kbps
Аудио#9:Телугу; Dolby Digital Audio / 5.1 / 48 kHz / 640 kbps
Аудио#10:Турецкий; Dolby Digital Audio / 5.1 / 48 kHz / 640 kbps
Аудио#11:Украинский; Dolby Digital Audio / 5.1 / 48 kHz / 640 kb
Субтитры: Русские, английские, арабские, болгарские, хорватские, чешские, эстонские, греческие, иврит, хинди, венгерские, исландские, латышские, литовские, польские, португальские, румынские, сербские, словацкие, словенские, турецкие
оSpot the Alien Game
3D Models of MIB Techology
The Making of Men In Black 3
Men In Black: 1960's vs. Today
Creating the visual effects featurette
Scene Investigation
Progression Reels
"Back In Time" Music Video by Pitbull
скриншот  скриншот  скриншот  скриншот  

Общее
Идентификатор : 0 (0x0)
Полное имя : E:\Men in Black 3 2012 1080p Blu-ray AVC DTS-HD MA 5.1-HDChina\BDMV\STREAM\00800.m2ts
Формат : BDAV
Формат/Информация : Blu-ray Video
Размер файла : 29,5 Гбайт
Продолжительность : 1 ч. 45 м.
Режим общего битрейта : Переменный
Общий поток : 39,9 Мбит/сек
Максимальный общий битрейт : 48,0 Мбит/сек

Видео
Идентификатор : 4113 (0x1011)
Идентификатор меню : 1 (0x1)
Формат : AVC
Формат/Информация : Advanced Video Codec
Профиль формата : High@L4.1
Параметр CABAC формата : Да
Параметр ReFrames формата : 4 кадра
Идентификатор кодека : 27
Продолжительность : 1 ч. 45 м.
Вид битрейта : Переменный
Битрейт : 30,3 Мбит/сек
Максимальный битрейт : 36,0 Мбит/сек
Ширина : 1920 пикселей
Высота : 1080 пикселей
Соотношение сторон : 16:9
Частота кадров : 23,976 кадра/сек
Цветовое пространство : YUV
Субдискретизация насыщенности : 4:2:0
Битовая глубина : 8 бит
Тип развёртки : Прогрессивная
Бит/(Пиксели*Кадры) : 0.610
Размер потока : 22,4 Гбайт (76%)

Аудио #1
Идентификатор : 4352 (0x1100)
Идентификатор меню : 1 (0x1)
Формат : DTS
Формат/Информация : Digital Theater Systems
Профиль формата : MA / Core
Режим смешивания : Stream extension
Идентификатор кодека : 134
Продолжительность : 1 ч. 45 м.
Вид битрейта : Переменный
Битрейт : 1561 Кбит/сек / 1510 Кбит/сек
Каналы : 6 каналов
Расположение каналов : Front: L C R, Side: L R, LFE
Частота : 48,0 КГц
Битовая глубина : 16 бит
Метод сжатия : Без потерь / Lossy

Аудио #2
Идентификатор : 4353 (0x1101)
Идентификатор меню : 1 (0x1)
Формат : AC-3
Формат/Информация : Audio Coding 3
Расширение режима : CM (complete main)
Параметр Endianness формата : Big
Идентификатор кодека : 129
Продолжительность : 1 ч. 45 м.
Вид битрейта : Постоянный
Битрейт : 640 Кбит/сек
Каналы : 6 каналов
Расположение каналов : Front: L C R, Side: L R, LFE
Частота : 48,0 КГц
Битовая глубина : 16 бит
Метод сжатия : С потерями
Размер потока : 484 Мбайт (2%)

Аудио #3
Идентификатор : 4354 (0x1102)
Идентификатор меню : 1 (0x1)
Формат : AC-3
Формат/Информация : Audio Coding 3
Расширение режима : CM (complete main)
Параметр Endianness формата : Big
Идентификатор кодека : 129
Продолжительность : 1 ч. 45 м.
Вид битрейта : Постоянный
Битрейт : 640 Кбит/сек
Каналы : 6 каналов
Расположение каналов : Front: L C R, Side: L R, LFE
Частота : 48,0 КГц
Битовая глубина : 16 бит
Метод сжатия : С потерями
Размер потока : 484 Мбайт (2%)

Аудио #4
Идентификатор : 4355 (0x1103)
Идентификатор меню : 1 (0x1)
Формат : AC-3
Формат/Информация : Audio Coding 3
Расширение режима : CM (complete main)
Параметр Endianness формата : Big
Идентификатор кодека : 129
Продолжительность : 1 ч. 45 м.
Вид битрейта : Постоянный
Битрейт : 640 Кбит/сек
Каналы : 6 каналов
Расположение каналов : Front: L C R, Side: L R, LFE
Частота : 48,0 КГц
Битовая глубина : 16 бит
Метод сжатия : С потерями
Размер потока : 484 Мбайт (2%)

Аудио #5
Идентификатор : 4356 (0x1104)
Идентификатор меню : 1 (0x1)
Формат : AC-3
Формат/Информация : Audio Coding 3
Расширение режима : CM (complete main)
Параметр Endianness формата : Big
Идентификатор кодека : 129
Продолжительность : 1 ч. 45 м.
Вид битрейта : Постоянный
Битрейт : 640 Кбит/сек
Каналы : 6 каналов
Расположение каналов : Front: L C R, Side: L R, LFE
Частота : 48,0 КГц
Битовая глубина : 16 бит
Метод сжатия : С потерями
Размер потока : 484 Мбайт (2%)

Аудио #6
Идентификатор : 4357 (0x1105)
Идентификатор меню : 1 (0x1)
Формат : AC-3
Формат/Информация : Audio Coding 3
Расширение режима : CM (complete main)
Параметр Endianness формата : Big
Идентификатор кодека : 129
Продолжительность : 1 ч. 45 м.
Вид битрейта : Постоянный
Битрейт : 640 Кбит/сек
Каналы : 6 каналов
Расположение каналов : Front: L C R, Side: L R, LFE
Частота : 48,0 КГц
Битовая глубина : 16 бит
Метод сжатия : С потерями
Размер потока : 484 Мбайт (2%)

Аудио #7
Идентификатор : 4358 (0x1106)
Идентификатор меню : 1 (0x1)
Формат : AC-3
Формат/Информация : Audio Coding 3
Расширение режима : CM (complete main)
Параметр Endianness формата : Big
Идентификатор кодека : 129
Продолжительность : 1 ч. 45 м.
Вид битрейта : Постоянный
Битрейт : 640 Кбит/сек
Каналы : 6 каналов
Расположение каналов : Front: L C R, Side: L R, LFE
Частота : 48,0 КГц
Битовая глубина : 16 бит
Метод сжатия : С потерями
Размер потока : 484 Мбайт (2%)

Аудио #8
Идентификатор : 4359 (0x1107)
Идентификатор меню : 1 (0x1)
Формат : AC-3
Формат/Информация : Audio Coding 3
Расширение режима : CM (complete main)
Параметр Endianness формата : Big
Идентификатор кодека : 129
Продолжительность : 1 ч. 45 м.
Вид битрейта : Постоянный
Битрейт : 640 Кбит/сек
Каналы : 6 каналов
Расположение каналов : Front: L C R, Side: L R, LFE
Частота : 48,0 КГц
Битовая глубина : 16 бит
Метод сжатия : С потерями
Размер потока : 484 Мбайт (2%)

Аудио #9
Идентификатор : 4360 (0x1108)
Идентификатор меню : 1 (0x1)
Формат : AC-3
Формат/Информация : Audio Coding 3
Расширение режима : CM (complete main)
Параметр Endianness формата : Big
Идентификатор кодека : 129
Продолжительность : 1 ч. 45 м.
Вид битрейта : Постоянный
Битрейт : 640 Кбит/сек
Каналы : 6 каналов
Расположение каналов : Front: L C R, Side: L R, LFE
Частота : 48,0 КГц
Битовая глубина : 16 бит
Метод сжатия : С потерями
Размер потока : 484 Мбайт (2%)

Аудио #10
Идентификатор : 4361 (0x1109)
Идентификатор меню : 1 (0x1)
Формат : AC-3
Формат/Информация : Audio Coding 3
Расширение режима : CM (complete main)
Параметр Endianness формата : Big
Идентификатор кодека : 129
Продолжительность : 1 ч. 45 м.
Вид битрейта : Постоянный
Битрейт : 640 Кбит/сек
Каналы : 6 каналов
Расположение каналов : Front: L C R, Side: L R, LFE
Частота : 48,0 КГц
Битовая глубина : 16 бит
Метод сжатия : С потерями
Размер потока : 484 Мбайт (2%)

Аудио #11
Идентификатор : 4362 (0x110A)
Идентификатор меню : 1 (0x1)
Формат : AC-3
Формат/Информация : Audio Coding 3
Расширение режима : CM (complete main)
Параметр Endianness формата : Big
Идентификатор кодека : 129
Продолжительность : 1 ч. 45 м.
Вид битрейта : Постоянный
Битрейт : 640 Кбит/сек
Каналы : 6 каналов
Расположение каналов : Front: L C R, Side: L R, LFE
Частота : 48,0 КГц
Битовая глубина : 16 бит
Метод сжатия : С потерями
Размер потока : 484 Мбайт (2%)

Текст #1
Идентификатор : 4608 (0x1200)
Идентификатор меню : 1 (0x1)
Формат : PGS
Идентификатор кодека : 144

Текст #2
Идентификатор : 4609 (0x1201)
Идентификатор меню : 1 (0x1)
Формат : PGS
Идентификатор кодека : 144

Текст #3
Идентификатор : 4610 (0x1202)
Идентификатор меню : 1 (0x1)
Формат : PGS
Идентификатор кодека : 144

Текст #4
Идентификатор : 4611 (0x1203)
Идентификатор меню : 1 (0x1)
Формат : PGS
Идентификатор кодека : 144

Текст #5
Идентификатор : 4612 (0x1204)
Идентификатор меню : 1 (0x1)
Формат : PGS
Идентификатор кодека : 144

Текст #6
Идентификатор : 4613 (0x1205)
Идентификатор меню : 1 (0x1)
Формат : PGS
Идентификатор кодека : 144

Текст #7
Идентификатор : 4614 (0x1206)
Идентификатор меню : 1 (0x1)
Формат : PGS
Идентификатор кодека : 144

Текст #8
Идентификатор : 4615 (0x1207)
Идентификатор меню : 1 (0x1)
Формат : PGS
Идентификатор кодека : 144

Текст #9
Идентификатор : 4616 (0x1208)
Идентификатор меню : 1 (0x1)
Формат : PGS
Идентификатор кодека : 144

Текст #10
Идентификатор : 4617 (0x1209)
Идентификатор меню : 1 (0x1)
Формат : PGS
Идентификатор кодека : 144

Текст #11
Идентификатор : 4618 (0x120A)
Идентификатор меню : 1 (0x1)
Формат : PGS
Идентификатор кодека : 144

Текст #12
Идентификатор : 4619 (0x120B)
Идентификатор меню : 1 (0x1)
Формат : PGS
Идентификатор кодека : 144

Текст #13
Идентификатор : 4620 (0x120C)
Идентификатор меню : 1 (0x1)
Формат : PGS
Идентификатор кодека : 144

Текст #14
Идентификатор : 4621 (0x120D)
Идентификатор меню : 1 (0x1)
Формат : PGS
Идентификатор кодека : 144

Текст #15
Идентификатор : 4622 (0x120E)
Идентификатор меню : 1 (0x1)
Формат : PGS
Идентификатор кодека : 144

Текст #16
Идентификатор : 4623 (0x120F)
Идентификатор меню : 1 (0x1)
Формат : PGS
Идентификатор кодека : 144

Текст #17
Идентификатор : 4624 (0x1210)
Идентификатор меню : 1 (0x1)
Формат : PGS
Идентификатор кодека : 144

Текст #18
Идентификатор : 4625 (0x1211)
Идентификатор меню : 1 (0x1)
Формат : PGS
Идентификатор кодека : 144

Текст #19
Идентификатор : 4626 (0x1212)
Идентификатор меню : 1 (0x1)
Формат : PGS
Идентификатор кодека : 144

Текст #20
Идентификатор : 4627 (0x1213)
Идентификатор меню : 1 (0x1)
Формат : PGS
Идентификатор кодека : 144

Текст #21
Идентификатор : 4628 (0x1214)
Идентификатор меню : 1 (0x1)
Формат : PGS
Идентификатор кодека : 144




Скачать Люди в черном 3 через торрент http://i40.fastpic.ru/big/2012/0908/19/2e9593374b93b2135674fa2d60666c19.jpg Скачать, смотреть онлайн Люди в черном 3 бесплантно в хорошем качестве Описание: Агент Джей узнает, что никакого защитного галактического щита, способного отразить иноземный удар, не существует. Агент Кей не ... 10 10 3
Info! Золотая раздача, скачанное не засчитывается.
Торрент: Зарегистрирован [2012-09-08 11:34] · скачан: 145 раз
Статус: √ проверено
Размер: 44.69 GB
Как cкачать? Как скачать Люди в черном 3 через торрент | UTorrent

% Раздел Тема Автор DL S | L
Сборники и Сиквелы (48-60 fps) [ 10.61 GB ] Люди в черном 1, 2, 3 / Men in Black I, II, III | DUB | 720p, DUB slaventi-69 Скачать
2 | 1
Фильмы 2012 [ 2.43 GB ] Люди в черном 3 / Men in Black 3 | DUB + Оригинал | BDRip-AVC, DUB + Оригинал slaventi-69 Скачать
1 | 1
Сборники и Сиквелы (48-60 fps) [ 34.89 GB ] Люди в черном 1, 2, 3 / Men in Black I, II, III | DUB | 1080p, DUB Ворон Скачать
2 | 1
Ultra HD (UHD: 2K, 4K, 8K) [ 54.3 GB ] Люди в черном 3 / Men in Black 3 | Лицензия | 2160p sheker187 Скачать
1 | 0
3D Фильмы [ 24.73 GB ] Люди в черном 3 / Men in Black 3 | DUB | 1080p, DUB, лицензия serega768 Скачать
1 | 0
Фильмы (Blu-ray, BD-Remux, HDDVD) [ 73.54 GB ] Люди в черном 3 / Men in Black 3 | AVO | 2160p killermax2013 Скачать
1 | 0
Сборники на DVD и Сиквелы [DVDrip, WEB-DLRip, HDrip, BDRip] [ 4.37 GB ] Люди в черном 1, 2, 3 / Men in Black I, II, III | AVO | BDRip -=Cherry=- Скачать
1 | 0



Последний раз редактировалось: Pavlin (2012-09-08 12:17), всего редактировалось 4 раз(а)

28-11-2019 20:33  


Отключить вcю реклaмy на сайте, в т.ч. и в плеере онлайн просмотра!

08-09-2012 11:38 Люди в черном 3 Скачать торрент  

pavlin14
Аудио 1: Английский; DTS-HD Master Audio / 5.1 / 48 kHz / 2403 kbps
Аудио 2: Чешский; Dolby Digital Audio / 5.1 / 48 kHz / 640 kbps
Аудио 3: Хинди; Dolby Digital Audio / 5.1 / 48 kHz / 640 kbps
Аудио 4: Венгерский; Dolby Digital Audio / 5.1 / 48 kHz / 640 kbps
Аудио 5: Казахский; Dolby Digital Audio / 5.1 / 48 kHz / 640 kbps
Аудио 6: Польский; Dolby Digital Audio / 5.1 / 48 kHz / 640 kbps
Аудио 7: Русский; Dolby Digital Audio / 5.1 / 48 kHz / 640 kbps
Аудио 8: Тамильский; Dolby Digital Audio / 5.1 / 48 kHz / 640 kbps
Аудио 9: Телугу; Dolby Digital Audio / 5.1 / 48 kHz / 640 kbps
Аудио 10: Турецкий; Dolby Digital Audio / 5.1 / 48 kHz / 640 kbps
Аудио 11: Украинский; Dolby Digital Audio / 5.1 / 48 kHz / 640 kb



08-09-2012 11:39 Люди в черном 3 Скачать торрент  

Скажите какая песня играет в конце фильма?



08-09-2012 11:41 Люди в черном 3 Скачать торрент  

cкрины поражают размером и качеством...



08-09-2012 11:45 Люди в черном 3 Скачать торрент  

Нужно указывать все аудио дорожки, присутствующие в релизе
Доп. информацию спрятать в спойлер с названием "Дополнительно"

Для изменения статуса раздачи, после исправления уведомить в со ссылкой на раздачу



08-09-2012 12:34 Люди в черном 3 Скачать торрент  

AlexKa писал(а):

Скажите какая песня играет в конце фильма?

"Back In Time" - Pitbull



08-09-2012 13:12 Люди в черном 3 Скачать торрент  

pavlin14 писал(а):

AlexKa писал(а):

Скажите какая песня играет в конце фильма?

"Back In Time" - Pitbull

не когда он зашел в ресторан и седел старый слушал музыку под канец



19-09-2012 17:11 Люди в черном 3 Скачать торрент  

Jay-Z feat. Alicia Keys – Empire State of Mind (New York)



01-10-2012 11:02 Люди в черном 3 Скачать торрент  

Есть у кого образ 3д блурея в такомже качестве?



    Дорогой пользователь! Огромная просьба, поблагодарите релизера, оцените раздачу и оставьте свои комментарий, если Вы скачали Люди в черном 3 через торрент бесплатно!!
    Комментировать посты могут только пользователи прошедшие не сложную регистрацию
    Показать сообщения:    


    Люди в черном 3 через торрент
    Скачать бесплатно Люди в черном 3
    Люди в черном 3 скачать торрент
    Люди в черном 3 смотреть онлайн
    Cкачать фильм Люди в черном 3 бесплатно
    Люди в черном 3 скачать торрент в хорошем качестве
    Люди в черном 3 смотреть онлайн бесплатно в хорошем качестве
    Вы не можете начинать темы
    Вы не можете отвечать на сообщения
    Вы не можете редактировать свои сообщения
    Вы не можете удалять свои сообщения
    Вы не можете голосовать в опросах
    Вы не можете прикреплять файлы к сообщениям
    Вы можете скачивать файлы
    Люди в черном 3 / Men in Black 3 [2012 г., фантастика, боевик, комедия, приключения, Blu-ray CEE, Дубляж + Оригинал] смотреть онлайн, скачать торрент picoco.icu