1 сезон

iTunes

iTunes

1

Line

MVO

iTunes

13

1 сезон

RePack

30

Deluxe

pack

Лицензия

ВАЖНО

ИГРА 18+

pack

RePack

MK11

RePack

jed

RePack

fifa19

RePack

RDR2

RePack

NEED FOR SPEED™ PAYBACK

4 сезон

9 сезон

Бесстыжие 9 сезон

Все сериалы

все сериалы на PB.wtf

RePack

FAR CRY 5

Anonymous, добрый день, мы катастрофически не успеваем собрать деньги на оплату серверов, помогите нам пожалуйста 5,10,15р., для нас важна любая помощь . В качестве благодарности мы отключим Вам всю рекламу на сайте (укажите свой ник в строку Ваше имя)!

×
  
Magnet ссылка

Необратимость / Irréversible (Гаспар Ноэ / Gaspar Noé) [2002 г., триллер, драма, криминал, детектив, DVDRip, Профессиональный двухголосый] piratbit.org

Необратимость через торрент piratbit.org

Качают: 1 [ 0 KB/s ]
Размер: 1.46 GB | Добавлен: 8 лет 10 мес. назад | Торрент скачан:505 раз
Скачать  

11-09-2012 12:54 Необратимость Скачать торрент  

Необратимость / Irréversible

Год выпуска: 2002
Страна: Франция
Жанр: триллер, драма, криминал, детектив
Продолжительность: 01:34:00
Перевод: Профессиональный двухголосый + Оригинал
Тип релиза: Лицензия

Режиссер: Гаспар Ноэ / Gaspar Noé
Продюссер: Христоф Россигнон, Венсан Кассель, Брахим Чиоуа, ...
Сценарий: Гаспар Ноэ / Gaspar Noé

Премьера в мире: 22 мая 2002. Франция

возраст: 18+



В ролях: Моника Беллуччи, Венсан Кассель, Альбер Дюпонтель, Джо Престиа, Филипп Наон, Стефан Друо, Жан-Луи Кост, Мишель Гондуэн, Мурад Хима, Эллаль

Описание: История раскручивается из конца в начало. Темнота ночи, багровые отблески на стенах притона, бледные, как простыня, лица. Герой Венсента Касселя мечется в лабиринте лестниц и переходов одного из подпольных гей-клубов. Цель — найти и убить человека, которого он… никогда даже не видел в глаза. Но у него есть веская причина ненавидеть: незнакомец до смерти изнасиловал его подругу, с которой случайно столкнулся в безлюдном городском переходе…

Cамая натуралистичная сцена изнасилования за всю историю кинематографа — 9 минут анального секса. Два убийства, толпа геев и трансвеститов, полностью обнаженные Венсент Кассель и Моника Беллуччи…

Награды:

Каннский кинофестиваль, 2002 год
Номинации (1): Золотая пальмовая ветвь

Качество: DVDRip
Формат: AVI
Видео кодек: XviD
Аудио кодек: AC3
Видео: 720x320 (2.25:1), 25 fps, 1439 kbps avg, 0.25 bit/pixel
Аудио#1: Русский: 48 kHz, AC3 Dolby Digital, 3/2 (L,C,R,l,r) + LFE ch, ~384 kbps
Аудио#2: Французский: 48 kHz, AC3 Dolby Digital, 3/2 (L,C,R,l,r) + LFE ch, ~384 kbps
Cубтитры: Русские srt (отдельным файлом)





Формат : AVI
Формат/Информация : Audio Video Interleave
Размер файла : 1,46 Гбайт
Продолжительность : 1 ч. 34 м.
Общий поток : 2222 Кбит/сек
Программа кодирования : VirtualDubMod 1.5.10.2 (build 2542/release)
Библиотека кодирования : VirtualDubMod build 2542/release

Видео
Идентификатор : 0
Формат : MPEG-4 Visual
Профиль формата : Advanced Simple@L5
Параметр BVOP формата : 1
Параметр QPel формата : Нет
Параметр GMC формата : Без точки перехода
Параметр матрицы формата : Выборочная
Идентификатор кодека : XVID
Идентификатор кодека/Подсказка : XviD
Продолжительность : 1 ч. 34 м.
Битрейт : 1439 Кбит/сек
Ширина : 720 пикселей
Высота : 320 пикселей
Соотношение сторон : 1,575
Соотношение сторон в оригинале : 2,25:1
Частота кадров : 25,000 кадров/сек
Цветовое пространство : YUV
Субдискретизация насыщенности : 4:2:0
Битовая глубина : 8 бит
Тип развёртки : Прогрессивная
Метод сжатия : С потерями
Бит/(Пиксели*Кадры) : 0.250
Размер потока : 968 Мбайт (65%)
Библиотека кодирования : XviD 1.2.1 (UTC 2008-12-04)

Аудио #1
Идентификатор : 1
Формат : AC-3
Формат/Информация : Audio Coding 3
Расширение режима : CM (complete main)
Идентификатор кодека : 2000
Продолжительность : 1 ч. 34 м.
Вид битрейта : Постоянный
Битрейт : 384 Кбит/сек
Каналы : 6 каналов
Расположение каналов : Front: L C R, Side: L R, LFE
Частота : 48,0 КГц
Битовая глубина : 16 бит
Метод сжатия : С потерями
Размер потока : 258 Мбайт (17%)
Выравнивание : Разделение по промежуткам
Продолжительность промежутка : 40 мс. (1,00 видеокадр)
Время предзагрузки промежутка : 500 мс.

Аудио #2
Идентификатор : 2
Формат : AC-3
Формат/Информация : Audio Coding 3
Расширение режима : CM (complete main)
Идентификатор кодека : 2000
Продолжительность : 1 ч. 34 м.
Вид битрейта : Постоянный
Битрейт : 384 Кбит/сек
Каналы : 6 каналов
Расположение каналов : Front: L C R, Side: L R, LFE
Частота : 48,0 КГц
Битовая глубина : 16 бит
Метод сжатия : С потерями
Размер потока : 258 Мбайт (17%)
Выравнивание : Разделение по промежуткам
Продолжительность промежутка : 40 мс. (1,00 видеокадр)
Время предзагрузки промежутка : 500 мс.

piratbit.org



Скачать Необратимость через торрент http://i42.fastpic.ru/big/2012/0911/d8/75416033b05d36ae36a8ed4be8c9c2d8.jpg Скачать фильм Необратимость через торрент бесплантно в хорошем качестве Описание: История раскручивается из конца в начало. Темнота ночи, багровые отблески на стенах притона, бледные, как простыня, лица. Герой ... 10 10 10
Info! Золотая раздача, скачанное не засчитывается.
Торрент: Зарегистрирован [2012-09-11 12:54] · скачан: 505 раз
Статус: √ проверено
Размер: 1.46 GB
Как cкачать? Как скачать Необратимость через торрент | UTorrent

% Раздел Тема Автор DL S | L
Фильмы [HD 720p, 1080p] (Хороший звук DUB, MVO) [ 4.22 GB ] Необратимость / Irreversible [2002 BDRip 720p by msltel] MVO DVO msltel Скачать
1 | 0
Фильмы [HD 720p, 1080p] (Хороший звук DUB, MVO) [ 10.44 GB ] Необратимость / Irreversible [2002 BDRip 1080p by msltel] MVO DVO msltel Скачать
1 | 0
Фильмы 2001-2005 [ 2.02 GB ] Необратимость / Irréversible [2002 DVDRip-AVC] DVO + Original + Sub Kristian Larsson Скачать
1 | 0
Фильмы 2001-2005 [ 2 GB ] Необратимость / Irréversible [2002 DVDRip ] DVO + Original + Sub metanoia Скачать
1 | 0

28-11-2019 20:33  

Отключить всю рекламу на сайте

11-09-2012 13:16 Необратимость Скачать торрент  

посмотреть стоитpiratbit.org



11-09-2012 16:49 Необратимость Скачать торрент  

норм заценить стоит!! хотя про фильм первый раз слышу авторууважуха от уха до уха!!!! филь на СТЕНУ))))piratbit.org



11-09-2012 16:59 Необратимость Скачать торрент  

ДА, фильм должен быть хорошим, актеры отличные, к тому же муж с женой!piratbit.org



11-09-2012 17:08 Необратимость Скачать торрент  

Это очень сильный фильмpiratbit.org



20-11-2014 17:34 Необратимость Скачать торрент  

заценим) может подкинете скорости???piratbit.org



    Дорогой пользователь! Огромная просьба, поблагодарите релизера, оцените раздачу и оставьте свои комментарий, если Вы скачали Необратимость через торрент бесплатно! Внесите свою лепту в развитие PiratBit!
    Комментировать посты могут только пользователи прошедшие не сложную регистрацию
    Показать сообщения:    

    Необратимость через торрент
    Скачать бесплатно Необратимость
    Необратимость скачать торрент
    Необратимость смотреть онлайн
    Cкачать фильм Необратимость бесплатно
    Необратимость скачать торрент в хорошем качестве
    Необратимость смотреть онлайн бесплатно в хорошем качестве


    Вы не можете начинать темы
    Вы не можете отвечать на сообщения
    Вы не можете редактировать свои сообщения
    Вы не можете удалять свои сообщения
    Вы не можете голосовать в опросах
    Вы не можете прикреплять файлы к сообщениям
    Вы можете скачивать файлы