Ссылка на приватное зеркало нашего сайта всего за 1$. Внимание количество ограничено!!!

2 сезон

iTunes

iTunes

1

iTunes

iTunes

iTunes

WEBRip

iTunes

30
pack

Вам бонус

ВАЖНО

!!Акция!!

Alien_RageХит недели

RePack

Horizon Zero Dawn

ИГРА 18+

pack

RePack

jed

!!Акция!!

Alien_Rage

RePack

fifa19

RePack

Assassins Creed: Odyssey

RePack

NEED FOR SPEED™ PAYBACK

4 сезон

9 сезон

Бесстыжие 9 сезон

Все сериалы

все сериалы на PB.wtf

RePack

FAR CRY 5
  

Любовь во время холеры / Love in the Time of Cholera (Майк Ньюэлл) [2007 г., Драма, мелодрама, DVDRip-AVC, DUB, лицензия] piratbit.org

Любовь во время холеры через торрент piratbit.org

Размер: 2.38 GB | Добавлен: 8 лет назад | Торрент скачан:24 раза
Скачать  

11-09-2012 18:40 Любовь во время холеры Скачать торрент  

Любовь во время холеры / Love in the Time of Cholera Год выпуска: 2007

Страна: США

Жанр: Драма, мелодрама

Продолжительность: 02:12:31

Перевод: Дубляж, Лицензия

Тип релиза: Лицензия

Режиссер: Майк Ньюэлл
Продюссер: Скотт Стайндорфф, Брантли М. Данауэй, Майкл Робэн
Сценарий: Рональд Харвуд, Габриэль Гарсия Маркес

Бюджет: $45 000 000
Премьера в мире: 11.09.2012
В ролях: Джованна Меццоджорно, Хавьер Бардем, Бенджамин Брэтт, Джина Форбс, Марсела Мар, Сальваторе Базиле, Адриана Кэнтор, Джон Легуизамо, Лора Хэрринг, Гектор Элисондо, Унакс Угальде, Марсела Гардеасабаль, Лив Шрайбер, Алисия Боррачеро, Паола Турбэй, Энджи Чепеда, Ана Клаудия Таланкон, Ноэлль Шонволд, Алехандра Борреро, Карлос Дюплат, Мария Эугения Арболеда, Патриция Кастанеда, Маргалида Кастро, Фернанда Монтенегро, Каталина Сандино Морено, Андрес Парра, Индира Серрано
Описание: Прекрасный, но бедный юноша Флорентино Ариза признается Фермине Дазе в вечной любви, однако девушка выходит замуж за более состоятельного поклонника. Но Флорентино не отступается от своей любви. Он верит. Верит и ждет. Проходит путь от посыльного до преуспевающего судового магната, добивается богатства, славы и признания в надежде когда-нибудь заполучить свою Фермину. Проходит больше полувека. Роковая случайность и…влюбленные снова готовы кинуться в объятия друг друга...
Качество: DVDRip-AVC
Формат: MKV
Видео кодек: Другой MPEG4
Аудио кодек: AC3
Видео: MPEG-4 AVC, 1910 Кбит/с,25 fps, 720x576
Аудио: Русский, английский (AC3, 6 ch, 384 Кбит/с)
скриншот  
скриншот  
скриншот  
скриншот  

Формат : Matroska
Версия формата : Version 2
Размер файла : 2,38 Гбайт
Продолжительность : 2 ч. 7 м.
Общий поток : 2680 Кбит/сек
Дата кодирования : UTC 2012-09-06 14:20:36
Программа кодирования : mkvmerge v5.0.1 ('Es ist Sommer') built on Nov 6 2011 16:23:40
Библиотека кодирования : libebml v1.2.2 + libmatroska v1.3.0

Видео
Идентификатор : 1
Формат : AVC
Формат/Информация : Advanced Video Codec
Профиль формата : High@L4.1
Параметр CABAC формата : Да
Параметр ReFrames формата : 6 кадров
Идентификатор кодека : V_MPEG4/ISO/AVC
Продолжительность : 2 ч. 7 м.
Битрейт : 1910 Кбит/сек
Ширина : 720 пикселей
Высота : 576 пикселей
Соотношение сторон : 16:9
Частота кадров : 25,000 кадров/сек
Стандарт вещания : PAL
Цветовое пространство : YUV
Субдискретизация насыщенности : 4:2:0
Битовая глубина : 8 бит
Тип развёртки : Прогрессивная
Бит/(Пиксели*Кадры) : 0.184
Размер потока : 1,65 Гбайт (69%)
Библиотека кодирования : x264 core 119 r2106 07efeb4
Настройки программы : cabac=1 / ref=6 / deblock=1:-1:-1 / analyse=0x3:0x133 / me=umh / subme=9 / psy=1 / psy_rd=1.00:0.00 / mixed_ref=1 / me_range=16 / chroma_me=1 / trellis=2 / 8x8dct=1 / cqm=0 / deadzone=21,11 / fast_pskip=1 / chroma_qp_offset=-2 / threads=6 / sliced_threads=0 / nr=0 / decimate=1 / interlaced=0 / bluray_compat=0 / constrained_intra=0 / bframes=7 / b_pyramid=2 / b_adapt=2 / b_bias=0 / direct=3 / weightb=1 / open_gop=0 / weightp=2 / keyint=250 / keyint_min=25 / scenecut=40 / intra_refresh=0 / rc_lookahead=60 / rc=2pass / mbtree=1 / bitrate=1910 / ratetol=1.0 / qcomp=0.60 / qpmin=10 / qpmax=51 / qpstep=4 / cplxblur=20.0 / qblur=0.5 / ip_ratio=1.40 / aq=2:1.00
Default : Да
Forced : Нет

Аудио #1
Идентификатор : 2
Формат : AC-3
Формат/Информация : Audio Coding 3
Расширение режима : CM (complete main)
Идентификатор кодека : A_AC3
Продолжительность : 2 ч. 7 м.
Вид битрейта : Постоянный
Битрейт : 384 Кбит/сек
Каналы : 6 каналов
Расположение каналов : Front: L C R, Side: L R, LFE
Частота : 48,0 КГц
Битовая глубина : 16 бит
Метод сжатия : С потерями
Размер потока : 349 Мбайт (14%)
Default : Да
Forced : Нет

Аудио #2
Идентификатор : 3
Формат : AC-3
Формат/Информация : Audio Coding 3
Расширение режима : CM (complete main)
Идентификатор кодека : A_AC3
Продолжительность : 2 ч. 7 м.
Вид битрейта : Постоянный
Битрейт : 384 Кбит/сек
Каналы : 6 каналов
Расположение каналов : Front: L C R, Side: L R, LFE
Частота : 48,0 КГц
Битовая глубина : 16 бит
Метод сжатия : С потерями
Размер потока : 349 Мбайт (14%)
Default : Нет
Forced : Нет

piratbit.org



Скачать Любовь во время холеры через торрент http://pic.kartinco.top/images/1/rpi2hr5ilg.jpg Скачать фильм Любовь во время холеры через торрент бесплантно в хорошем качестве Описание: Прекрасный, но бедный юноша Флорентино Ариза признается Фермине Дазе в вечной любви, однако девушка выходит замуж за более ... 10 10 2
Info! Золотая раздача, скачанное не засчитывается.
Торрент: Зарегистрирован [2012-09-11 18:40] · скачан: 24 раз
Статус: √ проверено
Размер: 2.38 GB
Как cкачать? Как скачать Любовь во время холеры через торрент | qTorrent

% Раздел Тема Автор DL S | L
Фильмы [HD 720p, 1080p] (Хороший звук DUB, MVO) [ 15.86 GB ] Любовь во время холеры / Love in the Time of Cholera [2007 BDRip 1080p by msltel] DUB msltel Скачать
1 | 0
Фильмы [HD 720p, 1080p] (Хороший звук DUB, MVO) [ 6.26 GB ] Любовь во время холеры / Love in the Time of Cholera [2007 BDRip 720p by msltel] DUB msltel Скачать
1 | 0
Фильмы 2006-2008 [ 1.46 GB ] Любовь во время холеры / Love in the Time of Cholera [2007 HDRip] шурка Скачать
1 | 0

28-11-2019 20:33  

Отключить всю рекламу на сайте

16-09-2012 15:32 Любовь во время холеры Скачать торрент  

Ну вот теперь эта раздача золотая ;)piratbit.org



29-10-2012 18:24 Любовь во время холеры Скачать торрент  

Спасибо за труды! Скачивать не буду - уже и так пару раз смотрел. Фильм просто супер! piratbit.org



29-10-2012 18:32 Любовь во время холеры Скачать торрент  

МИКЛУХА ДЖЕКС писал(а):

Спасибо за труды! Скачивать не буду - уже и так пару раз смотрел. Фильм просто супер!

Спасибо за внимание и конечно за комментарий! :good2: piratbit.org



    Дорогой пользователь! Огромная просьба, поблагодарите релизера, оцените раздачу и оставьте свои комментарий, если Вы скачали Любовь во время холеры через торрент бесплатно! Внесите свою лепту в развитие PiratBit!
    Комментировать посты могут только пользователи прошедшие не сложную регистрацию
    Показать сообщения:    

    Любовь во время холеры через торрент
    Скачать бесплатно Любовь во время холеры
    Любовь во время холеры скачать торрент
    Любовь во время холеры смотреть онлайн
    Cкачать фильм Любовь во время холеры бесплатно
    Любовь во время холеры скачать торрент в хорошем качестве
    Любовь во время холеры смотреть онлайн бесплатно в хорошем качестве


    Вы не можете начинать темы
    Вы не можете отвечать на сообщения
    Вы не можете редактировать свои сообщения
    Вы не можете удалять свои сообщения
    Вы не можете голосовать в опросах
    Вы не можете прикреплять файлы к сообщениям
    Вы можете скачивать файлы