Ссылка на приватное зеркало нашего сайта всего за 1$. Внимание количество ограничено!!!

2 сезон

iTunes

iTunes

1

iTunes

iTunes

iTunes

WEBRip

iTunes

30
pack

Вам бонус

ВАЖНО

!!Акция!!

Alien_RageХит недели

RePack

Horizon Zero Dawn

ИГРА 18+

pack

RePack

jed

!!Акция!!

Alien_Rage

RePack

fifa19

RePack

Assassins Creed: Odyssey

RePack

NEED FOR SPEED™ PAYBACK

4 сезон

9 сезон

Бесстыжие 9 сезон

Все сериалы

все сериалы на PB.wtf

RePack

FAR CRY 5
  

У холмов есть глаза / The Hills Have Eyes (Александр Аджа) [2006 г., Ужасы, триллер, HDRip, DUB, лицензия] piratbit.org

У холмов есть глаза через торрент piratbit.org

Размер: 1.46 GB | Добавлен: 8 лет назад | Торрент скачан:229 раз
Скачать  

13-09-2012 21:07 У холмов есть глаза Скачать торрент  


У холмов есть глаза / The Hills Have Eyes
Год выпуска: 2006
Страна: США
Жанр: Ужасы, триллер
Продолжительность: 01:46:32
Перевод: Дубляж, Лицензия

Режиссер: Александр Аджа

В ролях: Аарон Стэнфорд, Кэтлин Куинлен, Винесса Шоу, Эмили де Рэйвин, Дэн Берд, Том Бауэр, Билли Драго, Роберт Джой, Тед Левайн, Десмонд Аскью, Эзра Баззингтон, Майкл Бэйли Смит, Лаура Ортиз, Грегори Никотеро

Описание: Отправляясь в небольшое путешествие, семья Картеров и не подозревала, каким ужасом оно для них обернется. Решив уехать подальше от цивилизации, они забредают в необитаемую пустыню, которая раньше служила полигоном для ядерных испытаний. Вскоре Картеры обнаруживают, что на этой вроде бы пустынной территории обитает кровожадная семейка мутантов... а они сами - добыча
Доп. информация:


Качество: HDRip
Формат: AVI
Видео кодек: XviD
Аудио кодек: AC3
Видео: 720x304 (2.37:1), 23.976 fps, XviD build 47 ~1529 kbps avg, 0.29 bit/pixel
Аудио#1: 48 kHz, AC3 Dolby Digital, 3/2 (L,C,R,l,r) + LFE ch, ~384 kbps


E:\Movies For Seed\U.Holmov.Est.Glaza.2006.RUS.BDRip.XviD.AC3.avi
General
Complete name : E:\Movies For Seed\U.Holmov.Est.Glaza.2006.RUS.BDRip.XviD.AC3.avi
Format : AVI
Format/Info : Audio Video Interleave
File size : 1.46 GiB
Duration : 1h 48mn
Overall bit rate : 1 923 Kbps
Movie name : Ó õîëìîâ åñòü ãëàçà / The Hills Have Eyes [UNRATED] (2006)
Director : SENATOR (BDRip 720)
Writing application : VirtualDubMod 1.5.10.2 (build 2542/release)
Comment : 17.04.2008
Video #0
ID : 0
Format : MPEG-4 Visual
Format profile : Advanced Simple@L5
Format settings, BVOP : 1
Format settings, QPel : No
Format settings, GMC : No warppoints
Format settings, Matrix : Default (MPEG)
Codec ID : XVID
Codec ID/Hint : XviD
Duration : 1h 48mn
Bit rate : 1 529 Kbps
Width : 720 pixels
Height : 304 pixels
Display aspect ratio : 2.35:1
Frame rate : 23.976 fps
Color space : YUV
Chroma subsampling : 4:2:0
Bit depth : 8 bits
Scan type : Progressive
Compression mode : Lossy
Bits/(Pixel*Frame) : 0.291
Stream size : 1.16 GiB (80%)
Writing library : XviD 1.2.0.dev47 (UTC 2006-11-01)
Audio #1
ID : 1
Format : AC-3
Format/Info : Audio Coding 3
Mode extension : CM (complete main)
Format settings, Endianness : Big
Codec ID : 2000
Duration : 1h 48mn
Bit rate mode : Constant
Bit rate : 384 Kbps
Channel(s) : 6 channels
Channel positions : Front: L C R, Side: L R, LFE
Sampling rate : 48.0 KHz
Bit depth : 16 bits
Compression mode : Lossy
Stream size : 298 MiB (20%)
Alignment : Split accross interleaves
Interleave, duration : 42 ms (1.00 video frame)
Interleave, preload duration : 500 ms

piratbit.org



Скачать У холмов есть глаза через торрент http://4.firepic.org/4/images/2012-09/13/cd6uk7rxq6q0.png Скачать фильм У холмов есть глаза через торрент бесплантно в хорошем качестве Описание: Отправляясь в небольшое путешествие, семья Картеров и не подозревала, каким ужасом оно для них обернется. Решив уехать подальше ... 9.7 10 6
Info! Золотая раздача, скачанное не засчитывается.
Торрент: Зарегистрирован [2012-09-13 21:07] · скачан: 229 раз
Статус: √ проверено
Размер: 1.46 GB
Как cкачать? Как скачать У холмов есть глаза через торрент | qTorrent

% Раздел Тема Автор DL S | L
Сборники на DVD и Сиквелы [DVDrip, WEB-DLRip, HDrip, BDRip] [ 5.1 GB ] У холмов есть глаза: Дилогия / The Hills Have Eyes: Dilogy [2006-2007 BDRip-AVC] [Unrated] DUB [ BD CEE] bober100 Скачать
1 | 0
Фильмы (Blu-ray, BD-Remux, HDDVD) [ 17.93 GB ] У холмов есть глаза 2 / The Hills Have Eyes II [2007 BD Remux 1080p] DUB+DVO+2xAVO bober100 Скачать
1 | 0
Фильмы (Blu-ray, BD-Remux, HDDVD) [ 34.76 GB ] У холмов есть глаза / The Hills Have Eyes [2006 BD Remux 1080p] DUB+DVO+2xAVO bober100 Скачать
1 | 0
Сборники и Сиквелы (48-60 fps) [ 7.64 GB ] У холмов есть глаза - Дилогия / The Hills Have Eyes - Dilogy BDRip-AVC / 60fps DUB] от R.G. HD-Films Ressident Скачать
1 | 0
Фильмы (Blu-ray, BD-Remux, HDDVD) [ 19.93 GB ] У холмов есть глаза 2 / The Hills Have Eyes II [2007 Blu-ray CEE / / Unrated] Ворон Скачать
1 | 0
Фильмы до 2000 г. [ 4.15 GB ] У холмов есть глаза / The Hills Have Eyes [2006 BDRip-AVC] DUB 2 x DVO 2 x AVO / Расширенная версия msltel Скачать
1 | 0
Фильмы 2006-2008 [ 2.81 GB ] У холмов есть глаза 2 / The Hills Have Eyes II [2007 BDRip-AVC] DUB DVO 2 x AVO msltel Скачать
1 | 0

28-11-2019 20:33  

Отключить всю рекламу на сайте

14-09-2012 04:06 У холмов есть глаза Скачать торрент  

Фильм так себе но зато сюжет отличный!piratbit.org



14-09-2012 06:51 У холмов есть глаза Скачать торрент  

Я ЕЩЁ СМОТРЕЛ В КИНОТЕАТРЕ ГОД НЕВЕРЕН
1977
страна
США
слоган «They burned the father, killed the mother, and raped the sister!»
режиссер Уэс Крэйвен
сценарий Уэс Крэйвен
продюсер Питер Лок
оператор Эрик Сааринен
композитор Дон Пик
художник Роберт А. Барнс, Джоэнн Джаффе
монтаж Уэс Крэйвен
жанр ужасы, триллер, ...
бюджет
$230 000
премьера (мир)
22 июля 1977, ...piratbit.org



    Дорогой пользователь! Огромная просьба, поблагодарите релизера, оцените раздачу и оставьте свои комментарий, если Вы скачали У холмов есть глаза через торрент бесплатно! Внесите свою лепту в развитие PiratBit!
    Комментировать посты могут только пользователи прошедшие не сложную регистрацию
    Показать сообщения:    

    У холмов есть глаза через торрент
    Скачать бесплатно У холмов есть глаза
    У холмов есть глаза скачать торрент
    У холмов есть глаза смотреть онлайн
    Cкачать фильм У холмов есть глаза бесплатно
    У холмов есть глаза скачать торрент в хорошем качестве
    У холмов есть глаза смотреть онлайн бесплатно в хорошем качестве


    Вы не можете начинать темы
    Вы не можете отвечать на сообщения
    Вы не можете редактировать свои сообщения
    Вы не можете удалять свои сообщения
    Вы не можете голосовать в опросах
    Вы не можете прикреплять файлы к сообщениям
    Вы можете скачивать файлы