Ссылка на приватное зеркало нашего сайта всего за 1$. Внимание количество ограничено!!!

2 сезон

iTunes

iTunes

1

iTunes

iTunes

iTunes

WEBRip

iTunes

30
pack

Новость дня

ВАЖНО

!!Акция!!

Alien_RageХит недели

RePack

Horizon Zero Dawn

ИГРА 18+

pack

RePack

jed

!!Акция!!

Alien_Rage

RePack

fifa19

RePack

Assassins Creed: Odyssey

RePack

NEED FOR SPEED™ PAYBACK

4 сезон

9 сезон

Бесстыжие 9 сезон

Все сериалы

все сериалы на PB.wtf

RePack

FAR CRY 5
  

У холмов есть глаза 2 / The Hills Have Eyes II (Мартин Уайс) [2007 г., Ужасы, триллер, HDRip, DUB, лицензия] piratbit.org

У холмов есть глаза 2 через торрент piratbit.org

Размер: 1.45 GB | Добавлен: 8 лет назад | Торрент скачан:133 раза
Скачать  

14-09-2012 12:20 У холмов есть глаза 2 Скачать торрент  


У холмов есть глаза 2 / The Hills Have Eyes II
Год выпуска: 2007
Страна: США
Жанр: Ужасы, триллер
Продолжительность: 01:29:57
Перевод: Дубляж, Лицензия

Режиссер: Мартин Уайс

В ролях: Майкл МакМиллиан, Джессика Строуп, Даниэлла Алонсо, Ли Томпсон Янг, Бен Краули, Эрик Эделстайн, Решад Стрик, Майкл Бэйли Смит, Дэвид Рейнолдс, Дерек Мирс, Джефф Кобер, Джей Аковоне, Арчи Као

Описание: Во время учений солдаты Национальной гвардии США делают привал на пограничной заставе в Нью-Мексико и, к своему удивлению, обнаруживают, что там никого нет. Получив сигнал тревоги, исходящий с отдаленной горной возвышенности, группа военных решает отправиться в этот район, чтобы помочь терпящим бедствие. Спасатели не знают, что это местечко когда-то посетила печально известная семья Картеров и что их поджидают кровожадные мутанты-каннибалы…
Доп. информация:


Качество: HDRip
Формат: AVI
Видео кодек: XviD
Аудио кодек: AC3
Видео: 720x304 (2.37:1), 23.976 fps, XviD build 65 ~1919 kbps avg, 0.37 bit/pixel
Аудио#1: 48 kHz, AC3 Dolby Digital, 3/2 (L,C,R,l,r) + LFE ch, ~384 kbps


E:\Movies For Seed\U.Holmov.Est.Glaza.2.2007.RUS.HDRip.XviD.AC3.avi
General
Complete name : E:\Movies For Seed\U.Holmov.Est.Glaza.2.2007.RUS.HDRip.XviD.AC3.avi
Format : AVI
Format/Info : Audio Video Interleave
File size : 1.45 GiB
Duration : 1h 29mn
Overall bit rate : 2 313 Kbps
Movie name : U.Holmov.Est.Glaza.2.2007.RUS.BDRip.XviD.AC3
Director : denashekkk
Writing application : VirtualDubMod 1.5.10.2 (build 2542/release)
Video #0
ID : 0
Format : MPEG-4 Visual
Format profile : Advanced Simple@L5
Format settings, BVOP : 2
Format settings, QPel : No
Format settings, GMC : No warppoints
Format settings, Matrix : Custom
Codec ID : XVID
Codec ID/Hint : XviD
Duration : 1h 29mn
Bit rate : 1 920 Kbps
Width : 720 pixels
Height : 304 pixels
Display aspect ratio : 2.35:1
Frame rate : 23.976 fps
Color space : YUV
Chroma subsampling : 4:2:0
Bit depth : 8 bits
Scan type : Progressive
Compression mode : Lossy
Bits/(Pixel*Frame) : 0.366
Stream size : 1.21 GiB (83%)
Writing library : XviD 65
Audio #1
ID : 1
Format : AC-3
Format/Info : Audio Coding 3
Mode extension : CM (complete main)
Format settings, Endianness : Big
Codec ID : 2000
Duration : 1h 29mn
Bit rate mode : Constant
Bit rate : 384 Kbps
Channel(s) : 6 channels
Channel positions : Front: L C R, Side: L R, LFE
Sampling rate : 48.0 KHz
Bit depth : 16 bits
Compression mode : Lossy
Stream size : 247 MiB (17%)
Alignment : Split accross interleaves
Interleave, duration : 42 ms (1.00 video frame)
Interleave, preload duration : 500 ms

piratbit.org



Скачать У холмов есть глаза 2 через торрент http://2.firepic.org/2/images/2012-09/13/wjif2k3m4izf.png Скачать фильм У холмов есть глаза 2 через торрент бесплантно в хорошем качестве Описание: Во время учений солдаты Национальной гвардии США делают привал на пограничной заставе в Нью-Мексико и, к своему удивлению, ... 9.9 10 7
Info! Золотая раздача, скачанное не засчитывается.
Торрент: Зарегистрирован [2012-09-14 12:20] · скачан: 133 раз
Статус: √ проверено
Размер: 1.45 GB
Как cкачать? Как скачать У холмов есть глаза 2 через торрент | qTorrent

% Раздел Тема Автор DL S | L
Фильмы (Blu-ray, BD-Remux, HDDVD) [ 17.93 GB ] У холмов есть глаза 2 / The Hills Have Eyes II [2007 BD Remux 1080p] DUB+DVO+2xAVO bober100 Скачать
1 | 0
Фильмы (Blu-ray, BD-Remux, HDDVD) [ 19.93 GB ] У холмов есть глаза 2 / The Hills Have Eyes II [2007 Blu-ray CEE / / Unrated] Ворон Скачать
1 | 0
Фильмы 2006-2008 [ 2.81 GB ] У холмов есть глаза 2 / The Hills Have Eyes II [2007 BDRip-AVC] DUB DVO 2 x AVO msltel Скачать
1 | 0


Последний раз редактировалось: PsYcho (2012-09-14 13:18), всего редактировалось 1 раз

28-11-2019 20:33  

Отключить всю рекламу на сайте

14-09-2012 13:10 У холмов есть глаза 2 Скачать торрент  

DAXAKA
В MediaInfo уберите ссылку на сторонний ресурс.piratbit.org



14-09-2012 13:20 У холмов есть глаза 2 Скачать торрент  

Vetаl писал(а):

DAXAKA
В MediaInfo уберите ссылку на сторонний ресурс.

удалил ссилку

Исправил релиз? Напиши мне в ЛС piratbit.org



    Дорогой пользователь! Огромная просьба, поблагодарите релизера, оцените раздачу и оставьте свои комментарий, если Вы скачали У холмов есть глаза 2 через торрент бесплатно! Внесите свою лепту в развитие PiratBit!
    Комментировать посты могут только пользователи прошедшие не сложную регистрацию
    Показать сообщения:    

    У холмов есть глаза 2 через торрент
    Скачать бесплатно У холмов есть глаза 2
    У холмов есть глаза 2 скачать торрент
    У холмов есть глаза 2 смотреть онлайн
    Cкачать фильм У холмов есть глаза 2 бесплатно
    У холмов есть глаза 2 скачать торрент в хорошем качестве
    У холмов есть глаза 2 смотреть онлайн бесплатно в хорошем качестве


    Вы не можете начинать темы
    Вы не можете отвечать на сообщения
    Вы не можете редактировать свои сообщения
    Вы не можете удалять свои сообщения
    Вы не можете голосовать в опросах
    Вы не можете прикреплять файлы к сообщениям
    Вы можете скачивать файлы