1 сезон

1 сезон

iTunes

1

iTunes

Кинопоиск HD

iTunes

13

1 сезон

RePack

30

Deluxe

ВАЖНО

ИГРА 18+

pack

RePack

MK11
pack

Легкие деньги

RePack

jed

RePack

fifa19

RePack

RDR2

RePack

NEED FOR SPEED™ PAYBACK

4 сезон

9 сезон

Бесстыжие 9 сезон

Все сериалы

все сериалы на PB.wtf

RePack

FAR CRY 5
  
Magnet ссылка

Война Харта / Hart's War (Грегори Хоблит) [2002 г., драма, военный, BDRip, MVO] piratbit.org

Война Харта через торрент piratbit.org

Качают: 1 [ 0 KB/s ]
Размер: 2.18 GB | Добавлен: 8 лет 7 мес. назад | Торрент скачан:144 раза
Скачать  

15-09-2012 17:03 Война Харта Скачать торрент  

Война Харта / Hart's War



  • Год выпуска: 2002
  • Страна: США (Metro-Goldwyn-Mayer)
  • Жанр: драма, военный
  • Продолжительность: 02:04:50
  • Перевод: Профессиональный многоголосый
  • Режиссер: Грегори Хоблит
  • Продюссер: Стивен Дж. Идс, Дэвид Фостер, Вольфган Глаттес
  • Сценарий: Билли Рэй, Терри Джордж, Джон Катценбах

  • Бюджет: $70 000 000
  • Премьера в мире: 15 февраля 2002
  • В ролях: Брюс Уиллис (Col. William A. McNamara,), Колин Фаррелл (Lt. Thomas W. Hart,), Терренс Ховард (Lt. Lincoln A. Scott), Коул Хаузер (Staff Sgt. Vic W. Bedford), Марчел Юреш (Col. Werner Visser), Лайнас Роуч (Capt. Peter A. Ross), Виселос Реон Шеннон (Lt. Lamar T. Archer), Мори Стерлинг (Pfc. Dennis A. Gerber), Сэм Джагер (Capt. R.G. Sisk), Скотт Майкл Кэмпбелл (Cpl. Joe S. Cromin), Рори Кокрейн (Sgt. Carl S. Webb), Себастьян Тиллинджер (Pvt. Bert D. 'Moose' Codman)
  • Описание:
    Лейтенант Томми Харт — студент-юрист второго года обучения. Во время Второй мировой войны он становится помощником офицера, попадает в плен и оказывается в немецком лагере для военнопленных. Там он знакомится с другим военнопленным — полковником Уильямом МакНамара.
    Узнав о том, что Харт знает закон, МакНамара поручает ему защиту на суде чернокожего заключенного, обвиняющегося в убийстве другого военнопленного. Однако на самом деле МакНамара хочет использовать судебный процесс для того, чтобы совершить попытку спастись из лагеря. А Харту предстоит сделать сложный выбор между своей страной, этикой и собственной жизнью…
  • Качество: BDRip (источник: -=trancer=- /Blu-Ray Remux/ 1080p/)
  • Формат: AVI
  • Видео кодек: XviD
  • Аудио кодек: AC3
  • Видео: 720x304 (2.37:1), 23.976 fps, XviD build 50 ~2042 kbps avg, 0.39 bit/pixel
  • Аудио#1: 48 kHz, AC3 Dolby Digital, 3/2 (L,C,R,l,r) + LFE ch, ~448 kbps
    Общее
    Полное имя : D:\Торенты\Vojna.Harta.2002.RUS.BDRip.XviD.AC3.-HQCLUB.avi
    Формат : AVI
    Формат/Информация : Audio Video Interleave
    Профиль формата : OpenDML
    Размер файла : 2,18 Гбайт
    Продолжительность : 2 ч. 4 м.
    Общий поток : 2502 Кбит/сек
    Название фильма : Hart's War (2002) BDRip
    Режиссёр : Vиkt0R
    Жанр : Drama/War
    Программа кодирования : VirtualDubModRus 1.5.10.2 (build 2542/release)
    Правообладатель : hqclub.net
    Примечание : R.G. HQCLUB

    Видео
    Идентификатор : 0
    Формат : MPEG-4 Visual
    Профиль формата : Advanced Simple@L5
    Параметр BVOP формата : 1
    Параметр QPel формата : Нет
    Параметр GMC формата : Без точки перехода
    Параметр матрицы формата : Выборочная
    Идентификатор кодека : XVID
    Идентификатор кодека/Подсказка : XviD
    Продолжительность : 2 ч. 4 м.
    Битрейт : 2042 Кбит/сек
    Ширина : 720 пикс.
    Высота : 304 пикс.
    Соотношение сторон : 2,35:1
    Частота кадров : 23,976 кадр/сек
    Цветовое пространство : YUV
    Подвыборка цветности : 4:2:0
    Битовая глубина : 8 бит
    Тип развёртки : Прогрессивная
    Метод сжатия : С потерями
    Бит/(Пиксели*Кадры) : 0.389
    Размер потока : 1,78 Гбайт (82%)
    Библиотека кодирования : XviD 1.2.1 (UTC 2008-12-04)

    Аудио
    Идентификатор : 1
    Формат : AC-3
    Формат/Информация : Audio Coding 3
    Расширение режима : CM (complete main)
    Идентификатор кодека : 2000
    Продолжительность : 2 ч. 4 м.
    Вид битрейта : Постоянный
    Битрейт : 448 Кбит/сек
    Каналы : 6 каналов
    Расположение каналов : Front: L C R, Side: L R, LFE
    Частота : 48,0 КГц
    Битовая глубина : 16 бит
    Метод сжатия : С потерями
    Размер потока : 400 Мбайт (18%)
    Выравнивание : Разделение по промежуткам
    Продолжительность промежутка : 42 мс. (1,00 видеокадр)

    piratbit.org



  • Скачать Война Харта через торрент http://i9.fastpic.ru/big/2010/0901/e4/59466ff60ee8ad72ffa36fdcd69ba4e4.jpg Скачать фильм Война Харта через торрент бесплантно в хорошем качестве Описание: Лейтенант Томми Харт — студент-юрист второго года обучения. Во время Второй мировой войны он становится помощником офицера, ... 5 10 1
    Info! Золотая раздача, скачанное не засчитывается.
    Торрент: Зарегистрирован [2012-09-15 17:03] · скачан: 144 раз
    Статус: √ проверено
    Размер: 2.18 GB
    Как cкачать? Как скачать Война Харта через торрент | UTorrent

    28-11-2019 20:33  

    Отключить всю рекламу на сайте

      Дорогой пользователь! Огромная просьба, поблагодарите релизера, оцените раздачу и оставьте свои комментарий, если Вы скачали Война Харта через торрент бесплатно! Внесите свою лепту в развитие PiratBit!
      Комментировать посты могут только пользователи прошедшие не сложную регистрацию
      Показать сообщения:    

      Война Харта через торрент
      Скачать бесплатно Война Харта
      Война Харта скачать торрент
      Война Харта смотреть онлайн
      Cкачать фильм Война Харта бесплатно
      Война Харта скачать торрент в хорошем качестве
      Война Харта смотреть онлайн бесплатно в хорошем качестве


      Вы не можете начинать темы
      Вы не можете отвечать на сообщения
      Вы не можете редактировать свои сообщения
      Вы не можете удалять свои сообщения
      Вы не можете голосовать в опросах
      Вы не можете прикреплять файлы к сообщениям
      Вы можете скачивать файлы