Ссылка на приватное зеркало нашего сайта всего за 1$. Внимание количество ограничено!!!

2 сезон

iTunes

iTunes

1

iTunes

iTunes

iTunes

WEBRip

iTunes

30
pack

Забери бонус

ВАЖНО

!!Акция!!

Alien_RageХит недели

RePack

RESIDENT EVIL 3: NEMESIS REMAKE

ИГРА 18+

pack

RePack

jed

!!Акция!!

Alien_Rage

RePack

fifa19

RePack

Assassins Creed: Odyssey

RePack

NEED FOR SPEED™ PAYBACK

4 сезон

9 сезон

Бесстыжие 9 сезон

Все сериалы

все сериалы на PB.wtf

RePack

FAR CRY 5
  

Засада / Stuck (Стюарт Гордон) [2007 г., триллер, драма, комедия, DVDRip, MVO] piratbit.org

Засада через торрент piratbit.org

Размер: 1.09 GB | Добавлен: 8 лет назад | Торрент скачан:16 раз
Скачать  

23-09-2012 10:46 Засада Скачать торрент  

Засада / Stuck

Год выпуска: 2007
Страна: Канада
Жанр: триллер, драма, комедия
Продолжительность: 95 мин. / 01:35
Перевод: Любительский многоголосый

Режиссер: Стюарт Гордон
Продюссер: Джей Файастоун, Кен Горд, Стюарт Гордон
Сценарий: John Strysik, Стюарт Гордон

Бюджет: $5 000 000
Премьера в мире: 21 мая 2007

лицам до 17 лет обязательно присутствие взрослого
Мировой рейтинг IMDB 6.60 (6 429)


В ролях: Мена Сувари, Стивен Ри, Расселл Хорнсби, Рукия Бернард, Кэролин Пёрди-Гордон, Лайонел Марк Смит, Уэйн Робсон, Р.Д. Рейд, Патрик МакКенна, Шарлин Ройер

Описание: Автомобиль Бренди потерял управление и она сбила бомжа, влетевшего прямо в лобовое стекло автомобиля. Опасаясь из-за этого инцендента потерять повышение по службе, она старается скрыть происшедшее и не оказывая ему никакой помощи, просто оставляет еще живого человека умирать в своем гараже. Но в скоре она понимает, что связана с пленником в кровавом... даже возмутительном сражении за выживание...

Качество: DVDRip
Формат: AVI
Видео кодек: XviD
Аудио кодек: AC3
Видео: 720x384 (1.85:1), 25 fps, XviD build 50 ~1362 kbps avg, 0.197 bit/pixel
Аудио#1: 48 kHz, AC3 Dolby Digital, 3/2 (L,C,R,l,r) + LFE ch, ~448.00 kbps avg




Общее
Полное имя : E:\Торренты\Piratbit\Zasada.avi
Формат : AVI
Формат/Информация : Audio Video Interleave
Размер файла : 1,09 Гбайт
Продолжительность : 1 ч. 25 м.
Общий поток : 1822 Кбит/сек
Программа кодирования : Lavf52.33.0

Видео
Идентификатор : 0
Формат : MPEG-4 Visual
Профиль формата : Simple@L3
Параметр BVOP формата : Нет
Параметр QPel формата : Нет
Параметр GMC формата : Без точки перехода
Параметр матрицы формата : Default (H.263)
Идентификатор кодека : XVID
Идентификатор кодека/Подсказка : XviD
Продолжительность : 1 ч. 25 м.
Битрейт : 1363 Кбит/сек
Ширина : 720 пикселей
Высота : 384 пикселя
Соотношение сторон : 1,85:1
Частота кадров : 25,000 кадров/сек
Цветовое пространство : YUV
Субдискретизация насыщенности : 4:2:0
Битовая глубина : 8 бит
Тип развёртки : Прогрессивная
Метод сжатия : С потерями
Бит/(Пиксели*Кадры) : 0.197
Размер потока : 832 Мбайт (75%)
Библиотека кодирования : XviD 1.2.1 (UTC 2008-12-04)

Аудио
Идентификатор : 1
Формат : AC-3
Формат/Информация : Audio Coding 3
Расширение режима : CM (complete main)
Параметр Endianness формата : Big
Идентификатор кодека : 2000
Продолжительность : 1 ч. 25 м.
Вид битрейта : Постоянный
Битрейт : 448 Кбит/сек
Каналы : 6 каналов
Расположение каналов : Front: L C R, Side: L R, LFE
Частота : 48,0 КГц
Битовая глубина : 16 бит
Метод сжатия : С потерями
Размер потока : 274 Мбайт (25%)
Выравнивание : Соединение по промежуткам
Продолжительность промежутка : 32 мс. (0,80 видеокадр)

piratbit.org



Скачать Засада через торрент http://pic.kartinco.top/images/1/x4o8ls9dam.jpg Скачать фильм Засада через торрент бесплантно в хорошем качестве Описание: Автомобиль Бренди потерял управление и она сбила бомжа, влетевшего прямо в лобовое стекло автомобиля. Опасаясь из-за этого ... 5 10 1
Info! Золотая раздача, скачанное не засчитывается.
Торрент: Зарегистрирован [2012-09-23 10:46] · скачан: 16 раз
Статус: √ проверено
Размер: 1.09 GB
Как cкачать? Как скачать Засада через торрент | qTorrent

% Раздел Тема Автор DL S | L
Фильмы [HD 720p, 1080p] (Хороший звук DUB, MVO) [ 13.35 GB ] Засада / Stuck [2007 BD-Remux MVO ] VintMosina Скачать
1 | 0
Фильмы 2006-2008 [ 1.46 GB ] Засада / Stuck [2007 DVDRip] MVO + Sub -=Cherry=- Скачать
1 | 0

28-11-2019 20:33  

Отключить всю рекламу на сайте

23-09-2012 10:48 Засада Скачать торрент  

Приятного просмотра!piratbit.org



    Дорогой пользователь! Огромная просьба, поблагодарите релизера, оцените раздачу и оставьте свои комментарий, если Вы скачали Засада через торрент бесплатно! Внесите свою лепту в развитие PiratBit!
    Комментировать посты могут только пользователи прошедшие не сложную регистрацию
    Показать сообщения:    

    Засада через торрент
    Скачать бесплатно Засада
    Засада скачать торрент
    Засада смотреть онлайн
    Cкачать фильм Засада бесплатно
    Засада скачать торрент в хорошем качестве
    Засада смотреть онлайн бесплатно в хорошем качестве


    Вы не можете начинать темы
    Вы не можете отвечать на сообщения
    Вы не можете редактировать свои сообщения
    Вы не можете удалять свои сообщения
    Вы не можете голосовать в опросах
    Вы не можете прикреплять файлы к сообщениям
    Вы можете скачивать файлы