Marvel's Avengers Deluxe Edition (супер цена) 159р. Внимание количество ограничено!!!

2 сезон

iTunes

iTunes

1

iTunes

iTunes

iTunes

WEBRip

iTunes

30
pack

Новость дня

ВАЖНО

!!Акция!!

Alien_RageХит недели

RePack

Horizon Zero Dawn

ИГРА 18+

pack

RePack

jed

!!Акция!!

Alien_Rage

RePack

fifa19

RePack

Assassins Creed: Odyssey

RePack

NEED FOR SPEED™ PAYBACK

4 сезон

9 сезон

Бесстыжие 9 сезон

Все сериалы

все сериалы на PB.wtf

RePack

FAR CRY 5
  

В долине Эла / In the Valley of Elah (Пол Хаггис) [2007 г., триллер, драма, криминал, детектив, HDRip, DUB, лицензия] piratbit.org

В долине Эла через торрент piratbit.org

Размер: 2.18 GB | Добавлен: 7 лет 11 мес. назад | Торрент скачан:179 раз
Скачать  

24-09-2012 11:02 В долине Эла Скачать торрент  

В долине Эла / In the Valley of Elah

Год выпуска: 2007
Страна: США
Жанр: триллер, драма, криминал, детектив
Продолжительность: 02:01:17
Перевод: Дубляж, Лицензия

Режиссер: Пол Хаггис
Продюссер: Дарлен Каамано, Стив Сэмюэлс, Патрик Уачсбергер
Сценарий: Пол Хаггис, Марк Боал

Премьера в мире: 1 сентября 2007

лицам до 17 лет обязательно присутствие взрослого
Мировой рейтинг IMDB 7.30 (41 099)


В ролях: Томми Ли Джонс, Шарлиз Терон, Джейсон Патрик, Сьюзен Сарандон, Джеймс Франко, Бэрри Корбин, Джош Бролин, Фрэнсис Фишер, Уэс Чэтэм, Джэйк МакЛафлин, Рудольф Панков, Ольга Зубкова, Юрий Брежнев, Любовь Германова, Александр Морозов

Описание: Фильм повествует об офицере, чей сын-солдат немотивированно отправляется в самоволку вскоре после возвращения в Штаты из Ирака, и исчезает без следа. Местный полицейский детектив берется помочь офицеру в расследовании...

Качество: HDRip
Формат: AVI
Видео кодек: XviD
Аудио кодек: AC3
Видео: 720x304 (2.37:1), 23.976 fps, XviD build 57 ~2120 kbps avg, 0.40 bit/pixel
Аудио#1: 48 kHz, AC3 Dolby Digital, 3/2 (L,C,R,l,r) + LFE ch, ~448 kbps





Общее
Полное имя : E:\Торренты\Piratbit\V doline Ela.avi
Формат : AVI
Формат/Информация : Audio Video Interleave
Профиль формата : OpenDML
Размер файла : 2,18 Гбайт
Продолжительность : 2 ч. 1 м.
Общий поток : 2575 Кбит/сек
Программа кодирования : VirtualDubMod 1.5.10.2 (build 2542/release)

Видео
Идентификатор : 0
Формат : MPEG-4 Visual
Профиль формата : Advanced Simple@L5
Параметр BVOP формата : 1
Параметр QPel формата : Нет
Параметр GMC формата : Без точки перехода
Параметр матрицы формата : Выборочная
Идентификатор кодека : XVID
Идентификатор кодека/Подсказка : XviD
Продолжительность : 2 ч. 1 м.
Битрейт : 2116 Кбит/сек
Ширина : 720 пикселей
Высота : 304 пикселя
Соотношение сторон : 2,35:1
Частота кадров : 23,976 кадра/сек
Цветовое пространство : YUV
Субдискретизация насыщенности : 4:2:0
Битовая глубина : 8 бит
Тип развёртки : Прогрессивная
Метод сжатия : С потерями
Бит/(Пиксели*Кадры) : 0.403
Размер потока : 1,79 Гбайт (82%)
Библиотека кодирования : XviD 57

Аудио
Идентификатор : 1
Формат : AC-3
Формат/Информация : Audio Coding 3
Расширение режима : CM (complete main)
Параметр Endianness формата : Big
Идентификатор кодека : 2000
Продолжительность : 2 ч. 1 м.
Вид битрейта : Постоянный
Битрейт : 448 Кбит/сек
Каналы : 6 каналов
Расположение каналов : Front: L C R, Side: L R, LFE
Частота : 48,0 КГц
Битовая глубина : 16 бит
Метод сжатия : С потерями
Размер потока : 388 Мбайт (17%)
Выравнивание : Разделение по промежуткам
Продолжительность промежутка : 42 мс. (1,00 видеокадр)
Время предзагрузки промежутка : 500 мс.

piratbit.org



Скачать В долине Эла через торрент http://pic.kartinco.top/images/1/kgj5c55hpf.jpg Скачать фильм В долине Эла через торрент бесплантно в хорошем качестве Описание: Фильм повествует об офицере, чей сын-солдат немотивированно отправляется в самоволку вскоре после возвращения в Штаты из Ирака, и ... 10 10 2
Info! Золотая раздача, скачанное не засчитывается.
Торрент: Зарегистрирован [2012-09-24 11:02] · скачан: 179 раз
Статус: √ проверено
Размер: 2.18 GB
Как cкачать? Как скачать В долине Эла через торрент | qTorrent

% Раздел Тема Автор DL S | L
Фильмы [HD 720p, 1080p] (Хороший звук DUB, MVO) [ 5.69 GB ] В долине Эла / In the Valley of Elah [2007 BDRip 720p ] кэп Скачать
1 | 0
Фильмы 2006-2008 [ 743 MB ] В долине Эла / In the Valley of Elah [2007 HDRip лицензия] brusovo Скачать
1 | 0

28-11-2019 20:33  

Отключить всю рекламу на сайте

24-09-2012 11:05 В долине Эла Скачать торрент  

Приятного просмотра! piratbit.org



24-09-2012 12:01 В долине Эла Скачать торрент  

Отличный фильм.piratbit.org



24-09-2012 12:36 В долине Эла Скачать торрент  

Говорят сильная кина, надо бы глянуть.piratbit.org



    Дорогой пользователь! Огромная просьба, поблагодарите релизера, оцените раздачу и оставьте свои комментарий, если Вы скачали В долине Эла через торрент бесплатно! Внесите свою лепту в развитие PiratBit!
    Комментировать посты могут только пользователи прошедшие не сложную регистрацию
    Показать сообщения:    

    В долине Эла через торрент
    Скачать бесплатно В долине Эла
    В долине Эла скачать торрент
    В долине Эла смотреть онлайн
    Cкачать фильм В долине Эла бесплатно
    В долине Эла скачать торрент в хорошем качестве
    В долине Эла смотреть онлайн бесплатно в хорошем качестве


    Вы не можете начинать темы
    Вы не можете отвечать на сообщения
    Вы не можете редактировать свои сообщения
    Вы не можете удалять свои сообщения
    Вы не можете голосовать в опросах
    Вы не можете прикреплять файлы к сообщениям
    Вы можете скачивать файлы