Достать ножи: Стеклянная луковица

MVO

Добыча

Дубляж

Уэнсдэй

1 сезон

Тор

Дубляж

13 клиническая

1 сезон

Жестокая ночь

MVO

Одни из нас

1 сезон

Deluxe

pack

Рекомендуем

30

Пиратка

ВАЖНО

ВАЖНО

Ghostwire

Пиратка

jed

RePack

nioh2

RePack

RDR2

RePack

NEED FOR SPEED™ PAYBACK

RePack

скачать торрент

Кинопоиск HD

Острые козырьки 6 сезон

6 сезон

FAR CRY 6

RePack

скачать торрент

Лицензия

скачать торрент

MVO

1

1 сезон

скачать торрент

1 сезон

скачать торрент

Лицензия

  

Прометей / Prometheus (Ридли Скотт) [2012 г., фантастика, триллер, приключения, BDRemux, Дубляж, лицензия]

Прометей через торрент piratbit.org

Размер: 29.48 GB | Добавлен: 10 лет назад | Торрент скачан:224 раза
Смотреть онлайн | Скачать | Поддержите нас   

29-09-2012 01:00 Прометей Скачать торрент  

Прометей / Prometheus

Год выпуска: 2012
Страна: США
Жанр: фантастика, триллер, приключения
Продолжительность: 02:03:46
Перевод: Дубляж, Лицензия

Режиссер: Ридли Скотт
Продюссер: Дэвид Гайлер, Уолтер Хилл, Ридли Скотт
Сценарий: Джон Спэйтс, Дэймон Линделоф, Дэн О’Бэннон

Мировой рейтинг IMDB 7.40 (161 933)


В ролях: Нуми Рапас, Майкл Фассбендер, Шарлиз Терон, Идрис Эльба, Гай Пирс, Логан Маршалл-Грин, Шон Харрис, Рейф Сполл, Иман Эллиотт, Бенедикт Вонг, Ольга Сирина, Татьяна Шитова, Александр Груздев, Даниил Эльдаров

Описание: В поисках сакрального знания группа ученых отправляется в самые темные и неизведанные чертоги вселенной. Именно там, в отдаленных мирах, находясь на пределе своих умственных и физических возможностей, им предстоит вступить в безжалостную схватку за будущее всего человечества...

Качество: BDRemux
Формат: MKV
Видео кодек: H.26x
Аудио кодек: DTS
Видео: AVC, 27.8 Мбит/сек, 1920x1080, 23.976 кадр/сек
Аудио#1: DTS, 755 Кбит/сек, 6 каналов, 48,0 КГц - Русский (Дубляж)Blu-ray EUR
Аудио#2: DTS, 1510 Кбит/сек, 6 каналов, 48,0 КГц - Английский (Отдельно)Blu-ray EUR
General
Unique ID : 225109119948909997039019310601769771704 (0xA95A70822EB45A70A57FE563E93EE2B8)
Complete name : D:\PROMETHEUS_2012_BD_REMUX\PROMETHEUS_2012_BD_REMUX.mkv
Format : Matroska
File size : 25.2 GiB
Duration : 2h 3mn
Overall bit rate : 29.1 Mbps
Encoded date : UTC 2012-09-29 00:19:15
Writing application : mkvmerge v5.8.0 ('No Sleep / Pillow') built on Sep 2 2012 15:37:04
Writing library : libebml v1.2.3 + libmatroska v1.3.0

Video
ID : 1
Format : AVC
Format/Info : Advanced Video Codec
Format profile : High@L4.1
Format settings, CABAC : Yes
Format settings, ReFrames : 2 frames
Codec ID : V_MPEG4/ISO/AVC
Duration : 2h 3mn
Bit rate mode : Variable
Bit rate : 27.8 Mbps
Width : 1 920 pixels
Height : 1 080 pixels
Display aspect ratio : 16:9
Frame rate : 23.976 fps
Color space : YUV
Chroma subsampling : 4:2:0
Bit depth : 8 bits
Scan type : Progressive
Bits/(Pixel*Frame) : 0.559
Stream size : 24.0 GiB (95%)

Audio
ID : 2
Format : DTS
Format/Info : Digital Theater Systems
Codec ID : A_DTS
Duration : 2h 3mn
Bit rate mode : Constant
Bit rate : 755 Kbps
Channel(s) : 6 channels
Channel positions : Front: L C R, Side: L R, LFE
Sampling rate : 48.0 KHz
Bit depth : 24 bits
Compression mode : Lossy
Stream size : 668 MiB (3%)
Title : Дубляж
Language : Russian

Text
ID : 3
Format : PGS
Muxing mode : zlib
Codec ID : S_HDMV/PGS
Codec ID/Info : The same subtitle format used on BDs/HD-DVDs
Language : Russian




Скачать Прометей через торрент https://pic1.kartinco.top/images/111/4ii65f3yf8.jpg Скачать, смотреть онлайн Прометей бесплантно в хорошем качестве Описание: В поисках сакрального знания группа ученых отправляется в самые темные и неизведанные чертоги вселенной. Именно там, в отдаленных ... 10 10 4
Info! Золотая раздача, скачанное не засчитывается.
Торрент: Зарегистрирован [2012-09-29 01:00] · скачан: 224 раз
Статус: √ проверено
Размер: 29.48 GB
Как cкачать? Как скачать Прометей через торрент | UTorrent

% Раздел Тема Автор DL S | L
Фильмы [HD 720p, 1080p] (Хороший звук DUB, MVO) [ 7.04 GB ] Прометей / Prometheus | Лицензия | 1080p, HEVC (10bit Мичман37 Скачать
2 | 0
Фильмы 2012 [ 15.43 GB ] Прометей / Prometheus | DUB + MVO + 4xAVO | HDTVRip 1080p sheker187 Скачать
1 | 0
Ultra HD (UHD: 2K, 4K, 8K) [ 20.04 GB ] Прометей / Prometheus | DUB | 2160p sheker187 Скачать
1 | 0
Ultra HD (UHD: 2K, 4K, 8K) [ 48.78 GB ] Прометей / Prometheus | Лицензия BD EUR | 2160p bober100 Скачать
1 | 0
Фильмы 2012 [ 4.07 GB ] Прометей / Prometheus | MVO | HDTVRip-AVC, Dub, MVO, 3 x AVO morfyi Скачать
1 | 0
# Фильмы [HD 720p, 1080p] (Хороший звук DUB, MVO) [ 13.8 GB ] Прометей / Prometheus | | 1080p от Ash61 / Расширенная Фан-версия Ворон Скачать
2 | 0
Фильмы [HD 720p, 1080p] (Хороший звук DUB, MVO) [ 7.75 GB ] Прометей / Prometheus | DUB | 720p от _denis_100 / NNNB _denis_100 Скачать
1 | 0



Последний раз редактировалось: Userman4ik (2012-09-29 06:41), всего редактировалось 1 раз

28-11-2019 20:33  


Отключить вcю реклaмy на сайте, в т.ч. и в плеере онлайн просмотра!

29-09-2012 06:25 Прометей Скачать торрент  

Userman4ik
1. Продолжительность укажи в формате ЧЧ:ММ:СС
2. В строке "Видео" укажи битрейт видео, а не общий битрейт

Для изменения статуса раздачи, после исправления уведомить в со ссылкой на раздачу



29-09-2012 06:41 Прометей Скачать торрент  

shuller писал(а):

Userman4ik
1. Продолжительность укажи в формате ЧЧ:ММ:СС
2. В строке "Видео" укажи битрейт видео, а не общий битрейт

Для изменения статуса раздачи, после исправления уведомить в со ссылкой на раздачу

а че с продолжительностью не так?
подумаешь ошибся на пару тысяч :)

вроде исправил



29-09-2012 13:24 Прометей Скачать торрент  

Раздайте пожалуйста



04-10-2012 08:01 Прометей Скачать торрент  

Да,классный фильмец! Спасибо.



16-01-2013 15:13 Прометей Скачать торрент  

Звук с треском, местами почему то!



    Дорогой пользователь! Огромная просьба, поблагодарите релизера, оцените раздачу и оставьте свои комментарий, если Вы скачали Прометей через торрент бесплатно!!
    Комментировать посты могут только пользователи прошедшие не сложную регистрацию
    Показать сообщения:    


    Прометей через торрент
    Скачать бесплатно Прометей
    Прометей скачать торрент
    Прометей смотреть онлайн
    Cкачать фильм Прометей бесплатно
    Прометей скачать торрент в хорошем качестве
    Прометей смотреть онлайн бесплатно в хорошем качестве
    Вы не можете начинать темы
    Вы не можете отвечать на сообщения
    Вы не можете редактировать свои сообщения
    Вы не можете удалять свои сообщения
    Вы не можете голосовать в опросах
    Вы не можете прикреплять файлы к сообщениям
    Вы можете скачивать файлы
    Прометей / Prometheus [2012 г., фантастика, триллер, приключения, BDRemux, Дубляж, лицензия] смотреть онлайн, скачать торрент picoco.icu