Ссылка на приватное зеркало нашего сайта всего за 1$. Внимание количество ограничено!!!

2 сезон

iTunes

iTunes

1

iTunes

iTunes

iTunes

WEBRip

iTunes

30
pack

Забери бонус

ВАЖНО

!!Акция!!

Alien_RageХит недели

RePack

RESIDENT EVIL 3: NEMESIS REMAKE

ИГРА 18+

pack

RePack

jed

!!Акция!!

Alien_Rage

RePack

fifa19

RePack

Assassins Creed: Odyssey

RePack

NEED FOR SPEED™ PAYBACK

4 сезон

9 сезон

Бесстыжие 9 сезон

Все сериалы

все сериалы на PB.wtf

RePack

FAR CRY 5
  

Медовый месяц Камиллы / Camille (Грегори МакКензи) [2007 г., фэнтези, драма, мелодрама, комедия, приключения, HDRip, DUB] piratbit.org

Медовый месяц Камиллы через торрент piratbit.org

Размер: 703 MB | Добавлен: 7 лет 11 мес. назад | Торрент скачан:72 раза
Скачать  

04-10-2012 12:19 Медовый месяц Камиллы Скачать торрент  

Медовый месяц Камиллы / Camille

Год выпуска: 2007
Страна: США
Жанр: фэнтези, драма, мелодрама, комедия, приключения
Продолжительность: 01:30:58
Перевод: Дубляж

Режиссер: Грегори МакКензи
Продюссер: Бретт Уолш, Дэниэл Гродник, Грегори МакКензи
Сценарий: Ник Пустей

Премьера в мире: 8 февраля 2007
Премьера (РФ): 4 июня 2009
Релиз на DVD: 9 июля 2009

Мировой рейтинг IMDB 5.90 (2 426)


В ролях: Сиенна Миллер, Джеймс Франко, Дэвид Кэрредин, Скотт Гленн, Эд Лотер, Марк Уилсон, Патриция Йетмен, Стив Маркофф, Тайлер Хайнс, Мими Кузык, Рамиля Искандер, Денис Беспалый, Александр Груздев, Рудольф Панков

Описание: Что может быть романтичнее медового месяца на Ниагаре? Но для Сайласа и Камиллы это будет необычное путешествие. Сайлас — мелкий мошенник, он женится на племяннице шерифа, только чтобы не попасть в тюрьму. Но влюбленная Камилла верит, что ее чувства изменят избранника. И ничто не помешает сбыться ее мечте о медовом месяце, даже собственная смерть...

Качество: HDRip
Формат: AVI
Видео кодек: XviD
Аудио кодек: MP3
Видео: 624x352 (1.77:1), 23.976 fps, XviD build 65 ~943 kbps avg, 0.18 bit/pixel
Аудио#1: 48 kHz, MPEG Layer 3, 2 ch, ~128.00 kbps avg


Формат : AVI
Формат/Информация : Audio Video Interleave
Размер файла : 703 Мбайт
Продолжительность : 1 ч. 30 м.
Общий поток : 1081 Кбит/сек
Программа кодирования : VirtualDubMod 1.5.10.3 | www.virtualdub-fr.org || (build 2550/release)
Библиотека кодирования : VirtualDubMod build 2550/release

Видео
Идентификатор : 0
Формат : MPEG-4 Visual
Профиль формата : Advanced Simple@L5
Параметр BVOP формата : 2
Параметр QPel формата : Нет
Параметр GMC формата : Без точки перехода
Параметр матрицы формата : Default (MPEG)
Идентификатор кодека : XVID
Идентификатор кодека/Подсказка : XviD
Продолжительность : 1 ч. 30 м.
Битрейт : 944 Кбит/сек
Ширина : 624 пикселя
Высота : 352 пикселя
Соотношение сторон : 16:9
Частота кадров : 23,976 кадра/сек
Цветовое пространство : YUV
Субдискретизация насыщенности : 4:2:0
Битовая глубина : 8 бит
Тип развёртки : Прогрессивная
Метод сжатия : С потерями
Бит/(Пиксели*Кадры) : 0.179
Размер потока : 614 Мбайт (87%)
Библиотека кодирования : XviD 65

Аудио
Идентификатор : 1
Формат : MPEG Audio
Версия формата : Version 1
Профиль формата : Layer 3
Идентификатор кодека : 55
Идентификатор кодека/Подсказка : MP3
Продолжительность : 1 ч. 30 м.
Вид битрейта : Постоянный
Битрейт : 128 Кбит/сек
Каналы : 2 канала
Частота : 48,0 КГц
Метод сжатия : С потерями
Размер потока : 83,3 Мбайт (12%)
Выравнивание : Соединение по промежуткам
Продолжительность промежутка : 42 мс. (1,00 видеокадр)
Время предзагрузки промежутка : 504 мс.
Библиотека кодирования : LAME3.99r
Настройки программы : -m s -V 4 -q 2 -lowpass 17 -b 128

piratbit.org



Скачать Медовый месяц Камиллы через торрент http://img820.imageshack.us/img820/9555/48338372.png Скачать фильм Медовый месяц Камиллы через торрент бесплантно в хорошем качестве Описание: Что может быть романтичнее медового месяца на Ниагаре? Но для Сайласа и Камиллы это будет необычное путешествие. Сайлас — мелкий ... 8 10 1
Info! Золотая раздача, скачанное не засчитывается.
Торрент: Зарегистрирован [2012-10-04 12:19] · скачан: 72 раз
Статус: √ проверено
Размер: 703 MB
Как cкачать? Как скачать Медовый месяц Камиллы через торрент | qTorrent

% Раздел Тема Автор DL S | L
Фильмы 2006-2008 [ 2.89 GB ] Медовый месяц Камиллы / Camille [2007 BDRip-AVC] Dub sokol_ok Скачать
2 | 0
Фильмы 2006-2008 [ 1.46 GB ] Медовый месяц Камиллы / Camille [2007 BDRip-AVC] Dub sokol_ok Скачать
3 | 0
Фильмы [HD 720p, 1080p] (Хороший звук DUB, MVO) [ 4.52 GB ] Медовый месяц Камиллы / Camille [2008 BDRip 720p by msltel] DUB msltel Скачать
1 | 0
Фильмы [HD 720p, 1080p] (Хороший звук DUB, MVO) [ 11.47 GB ] Медовый месяц Камиллы / Camille [2008 BDRip 1080p by msltel] DUB msltel Скачать
1 | 0

28-11-2019 20:33  

Отключить всю рекламу на сайте

    Дорогой пользователь! Огромная просьба, поблагодарите релизера, оцените раздачу и оставьте свои комментарий, если Вы скачали Медовый месяц Камиллы через торрент бесплатно! Внесите свою лепту в развитие PiratBit!
    Комментировать посты могут только пользователи прошедшие не сложную регистрацию
    Показать сообщения:    

    Медовый месяц Камиллы через торрент
    Скачать бесплатно Медовый месяц Камиллы
    Медовый месяц Камиллы скачать торрент
    Медовый месяц Камиллы смотреть онлайн
    Cкачать фильм Медовый месяц Камиллы бесплатно
    Медовый месяц Камиллы скачать торрент в хорошем качестве
    Медовый месяц Камиллы смотреть онлайн бесплатно в хорошем качестве


    Вы не можете начинать темы
    Вы не можете отвечать на сообщения
    Вы не можете редактировать свои сообщения
    Вы не можете удалять свои сообщения
    Вы не можете голосовать в опросах
    Вы не можете прикреплять файлы к сообщениям
    Вы можете скачивать файлы