Достать ножи: Стеклянная луковица

MVO

Добыча

Дубляж

Уэнсдэй

1 сезон

Тор

Дубляж

13 клиническая

1 сезон

Жестокая ночь

MVO

Одни из нас

1 сезон

Deluxe

pack

Рекомендуем

30

Пиратка

ВАЖНО

ВАЖНО

Ghostwire

Пиратка

jed

RePack

nioh2

RePack

RDR2

RePack

NEED FOR SPEED™ PAYBACK

RePack

скачать торрент

Кинопоиск HD

Острые козырьки 6 сезон

6 сезон

FAR CRY 6

RePack

скачать торрент

Лицензия

скачать торрент

MVO

1

1 сезон

скачать торрент

1 сезон

скачать торрент

Лицензия

  

Глаз ребенка / Tung ngaan (Оксид Пан, Дэнни Пан) [2010 г., ужасы,Blu-Ray Remux (1080p), Дубляж, лицензия]

Глаз ребенка через торрент piratbit.org

Размер: 18.97 GB | Добавлен: 10 лет назад | Торрент скачан:16 раз
Смотреть онлайн | Скачать | Поддержите нас   

09-10-2012 08:49 Глаз ребенка Скачать торрент  

Глаз ребенка / Tung ngaan
Год выпуска: 2010
Страна: Гонконг
Жанр: ужасы
Продолжительность: 01:37:02
Перевод: Дубляж, Лицензия
Субтитры: Русские, китайские, английские
Режиссер: Оксид Пан, Дэнни Пан
Продюссер: Элвин Лам, Оксид Пан, Дэнни Пан
Сценарий: Оксид Пан, Дэнни Пан, Томас Пэнг
Бюджет: $4 500 000
Премьера в мире: 4 сентября 2010
IMDB 4.70 (426)

В ролях: Рэйни Ян, Элэнн Квонг, Шон Юе, Ка Танг Лам, Джо Кук, Лоуренс Чоу, Сиви Лам, Вероника Саркисова, Дмитрий Курта, Александра Остроухова
Описание: Группа путешественников из Гонконга в составе 6 человек оказывается запертой в аэропорту Бангкока во время антиправительственного протеста в ноябре 2008-го года. Трое из группы исчезают таинственным и необъяснимым образом, а остальным предстоит столкнуться со сверхъестественными силами.
Качество: Blu-Ray Remux (1080p)
Контейнер: BDMV
Видео кодек: m2ts
Аудио кодек: AC3,DTS
Видео: MPEG-4 AVC, 25.6 Мбит/с, 1920x1080, 23.976 кадр/с
Аудио#1: AC-3 at 448 Kbps: 6 channels, 48.0 KHz Language: Русский
Аудио#2: DTS at 818 Kbps / 755 Kbps : 8 channels / 6 channels, 48.0 KHz Language: китайский

General
ID : 1 (0x1)
Complete name : D:Child's.Eye.2010.1080p.BD-Remux.Rus.Chi.HDCLUBBDMVSTREAM�0000.m2ts
Format : BDAV
Format/Info : Blu-ray Video
File size : 19.0 GiB
Duration : 1h 37mn
Overall bit rate mode : Variable
Overall bit rate : 28.0 Mbps
Maximum Overall bit rate : 35.5 Mbps

Video
ID : 4113 (0x1011)
Menu ID : 1 (0x1)
Format : AVC
Format/Info : Advanced Video Codec
Format profile : High@L4.1
Format settings, CABAC : Yes
Format settings, ReFrames : 2 frames
Codec ID : 27
Duration : 1h 37mn
Bit rate mode : Variable
Bit rate : 25.6 Mbps
Width : 1 920 pixels
Height : 1 080 pixels
Display aspect ratio : 16:9
Frame rate : 23.976 fps
Color space : YUV
Chroma subsampling : 4:2:0
Bit depth : 8 bits
Scan type : Progressive
Bits/(Pixel*Frame) : 0.515
Stream size : 17.3 GiB (91%)

Audio #1
ID : 4352 (0x1100)
Menu ID : 1 (0x1)
Format : AC-3
Format/Info : Audio Coding 3
Mode extension : CM (complete main)
Format settings, Endianness : Big
Codec ID : 129
Duration : 1h 37mn
Bit rate mode : Constant
Bit rate : 448 Kbps
Channel(s) : 6 channels
Channel positions : Front: L C R, Side: L R, LFE
Sampling rate : 48.0 KHz
Bit depth : 16 bits
Compression mode : Lossy
Stream size : 311 MiB (2%)
Language : Russian

Audio #2
ID : 4353 (0x1101)
Menu ID : 1 (0x1)
Format : DTS
Format/Info : Digital Theater Systems
Format profile : MA / Core
Muxing mode : Stream extension
Codec ID : 134
Duration : 1h 37mn
Bit rate mode : Variable
Bit rate : 818 Kbps / 755 Kbps
Channel(s) : 8 channels / 6 channels
Channel positions : Front: L C R, Side: L R, Back: L R, LFE / Front: L C R, Side: L R, LFE
Sampling rate : 48.0 KHz
Bit depth : 16 bits
Compression mode : Lossless / Lossy
Language : Chinese

Text #1
ID : 4608 (0x1200)
Menu ID : 1 (0x1)
Format : PGS
Codec ID : 144
Language : Russian

Text #2
ID : 4609 (0x1201)
Menu ID : 1 (0x1)
Format : PGS
Codec ID : 144
Language : Chinese

Text #3
ID : 4610 (0x1202)
Menu ID : 1 (0x1)
Format : PGS
Codec ID : 144
Language : Chinese

Text #4
ID : 4611 (0x1203)
Menu ID : 1 (0x1)
Format : PGS
Codec ID : 144
Language : English




Скачать Глаз ребенка через торрент http://i27.fastpic.ru/big/2011/1021/3a/1f219fda5c6de9f021d4388c0035b73a.png Скачать, смотреть онлайн Глаз ребенка бесплантно в хорошем качестве Описание: Группа путешественников из а в составе 6 человек оказывается запертой в аэропорту Бангкока во время анравительственного ... 10 10 1
Info! Золотая раздача, скачанное не засчитывается.
Торрент: Зарегистрирован [2012-10-09 08:49] · скачан: 16 раз
Статус: √ проверено
Размер: 18.97 GB
Как cкачать? Как скачать Глаз ребенка через торрент | UTorrent

28-11-2019 20:33  


Отключить вcю реклaмy на сайте, в т.ч. и в плеере онлайн просмотра!

    Дорогой пользователь! Огромная просьба, поблагодарите релизера, оцените раздачу и оставьте свои комментарий, если Вы скачали Глаз ребенка через торрент бесплатно!!
    Комментировать посты могут только пользователи прошедшие не сложную регистрацию
    Показать сообщения:    


    Глаз ребенка через торрент
    Скачать бесплатно Глаз ребенка
    Глаз ребенка скачать торрент
    Глаз ребенка смотреть онлайн
    Cкачать фильм Глаз ребенка бесплатно
    Глаз ребенка скачать торрент в хорошем качестве
    Глаз ребенка смотреть онлайн бесплатно в хорошем качестве
    Вы не можете начинать темы
    Вы не можете отвечать на сообщения
    Вы не можете редактировать свои сообщения
    Вы не можете удалять свои сообщения
    Вы не можете голосовать в опросах
    Вы не можете прикреплять файлы к сообщениям
    Вы можете скачивать файлы
    Глаз ребенка / Tung ngaan [2010 г., ужасы,Blu-Ray Remux , Дубляж, лицензия] смотреть онлайн, скачать торрент picoco.icu