Ссылка на приватное зеркало нашего сайта всего за 1$. Внимание количество ограничено!!!

2 сезон

iTunes

iTunes

1

iTunes

iTunes

iTunes

WEBRip

iTunes

30
pack

Новость дня

ВАЖНО

!!Акция!!

Alien_RageХит недели

RePack

Horizon Zero Dawn

ИГРА 18+

pack

RePack

jed

!!Акция!!

Alien_Rage

RePack

fifa19

RePack

Assassins Creed: Odyssey

RePack

NEED FOR SPEED™ PAYBACK

4 сезон

9 сезон

Бесстыжие 9 сезон

Все сериалы

все сериалы на PB.wtf

RePack

FAR CRY 5
  

Заложница / Taken (Пьер Морель) [2008 г., Боевик, триллер, криминал, BDRip - AVC, VO] piratbit.org

Заложница через торрент piratbit.org

Размер: 1.5 GB | Добавлен: 7 лет 11 мес. назад | Торрент скачан:680 раз
Скачать  

10-10-2012 16:51 Заложница Скачать торрент  

Заложница / Taken

Год выпуска: 2008
Страна: США, Франция, Великобритания, All Pictures Media, Canal+ [fr], Europa Corp., Grive Productions, M6 Films, TPS Star, Wintergreen Productions
Жанр: Боевик, триллер, криминал
Продолжительность: 01:33:25
Перевод: Профессиональный одноголосый (Юрий Сербин)
Тип релиза: Лицензия

Режиссер: Пьер Морель

В ролях: Лиам Нисон, Мэгги Грэйс, Лиленд Орсер, Джон Грайз, Дэвид Уоршофски, Холли Вэлэнс, Кэти Кэссиди, Ксандер Беркли, Оливье Рабурден, Жерар Уоткинс, Фамке Янссен, Марк Амио, Арбен Бажрактараж, Радивойе Буквич, Матье Бюссон, Мишель Флэш, Николас Жиро, Рубенс Хука, Камила Джепи, Валентин Калай, Фани Коларова, Горан Костич, Кристоф Курочкин, Эдвин Крюгер, Джалил Насири, Анка Радичи, Натан Риппи, Хелена Субейранд, Томми Спахиджа, Анатоль Таубман, Бертран Трюиль, Опендер Синх, Кристи Миллер, Джордж Хертцберг, Набил Массад, Иветт Гонзалес

Описание: Молодую девушку похитили во время туристического отдыха. Её отец пускается в опасное приключение-спасение, чтобы вернуть дочь и наказать виновных лично.


Общее
Уникальный идентификатор : 207925863723261619705172172176306174241 (0x9C6D109135A0E6F58D8CB3E805337921)
Полное имя : C:UsersадминDesktopZalozhnica.2008.P.BDRip.AVC.rip by Odessit (1).mkv
Формат : Matroska
Версия формата : Version 2
Размер файла : 1,50 Гбайт
Продолжительность : 1 ч. 33 м.
Общий поток : 2298 Кбит/сек
Дата кодирования : UTC 2012-10-10 06:16:27
Программа кодирования : mkvmerge v5.8.0 ('No Sleep / Pillow') built on Sep 2 2012 15:37:04
Библиотека кодирования : libebml v1.2.3 + libmatroska v1.3.0

Видео
Идентификатор : 1
Формат : AVC
Формат/Информация : Advanced Video Codec
Профиль формата : High@L4.1
Параметр CABAC формата : Да
Параметр ReFrames формата : 4 кадра
Идентификатор кодека : V_MPEG4/ISO/AVC
Продолжительность : 1 ч. 33 м.
Битрейт : 1849 Кбит/сек
Ширина : 1024 пикселя
Высота : 432 пикселя
Соотношение сторон : 2,40:1
Режим частоты кадров : Постоянный
Частота кадров : 23,976 кадра/сек
Цветовое пространство : YUV
Субдискретизация насыщенности : 4:2:0
Битовая глубина : 8 бит
Тип развёртки : Прогрессивная
Бит/(Пиксели*Кадры) : 0.174
Размер потока : 1,18 Гбайт (79%)
Библиотека кодирования : x264 core 125 r2200 999b753
Настройки программы : cabac=1 / ref=3 / deblock=1:0:0 / analyse=0x3:0x113 / me=hex / subme=7 / psy=1 / psy_rd=1.00:0.00 / mixed_ref=1 / me_range=16 / chroma_me=1 / trellis=1 / 8x8dct=1 / cqm=0 / deadzone=21,11 / fast_pskip=1 / chroma_qp_offset=-2 / threads=3 / lookahead_threads=1 / sliced_threads=0 / nr=0 / decimate=1 / interlaced=0 / bluray_compat=0 / constrained_intra=0 / bframes=3 / b_pyramid=2 / b_adapt=1 / b_bias=0 / direct=1 / weightb=1 / open_gop=0 / weightp=2 / keyint=240 / keyint_min=23 / scenecut=40 / intra_refresh=0 / rc_lookahead=40 / rc=2pass / mbtree=1 / bitrate=1849 / ratetol=1.0 / qcomp=0.60 / qpmin=0 / qpmax=69 / qpstep=4 / cplxblur=20.0 / qblur=0.5 / ip_ratio=1.40 / aq=1:1.00
Язык : English
Default : Да
Forced : Нет

Аудио
Идентификатор : 2
Формат : AC-3
Формат/Информация : Audio Coding 3
Расширение режима : CM (complete main)
Параметр Endianness формата : Big
Идентификатор кодека : A_AC3
Продолжительность : 1 ч. 33 м.
Вид битрейта : Постоянный
Битрейт : 448 Кбит/сек
Каналы : 6 каналов
Расположение каналов : Front: L C R, Side: L R, LFE
Частота : 48,0 КГц
Битовая глубина : 16 бит
Метод сжатия : С потерями
Размер потока : 299 Мбайт (19%)
Default : Да
Forced : Нет
Качество: BDRip - AVC
Формат: MKV
Видео кодек: AVC
Аудио кодек: AC3
Видео: MPEG-4 AVC, 1849 Кбит/с, 1024x432, 23.976 кадр/с
Аудио#1: АС3, 6 ch, 448 Кбит/с [Сербин]
Релиз от:



piratbit.org



Скачать Заложница через торрент http://i39.fastpic.ru/big/2012/1010/43/8107f058c42cee61df0bf128bfeb4043.jpg Скачать фильм Заложница через торрент бесплантно в хорошем качестве Описание: Молодую девушку похитили во время туристического отдыха. Её отец пускается в опасное -спасение, чтобы вернуть дочь и ... 8.5 10 4
Info! Золотая раздача, скачанное не засчитывается.
Торрент: Зарегистрирован [2012-10-10 16:51] · скачан: 680 раз
Статус: √ проверено
Размер: 1.5 GB
Как cкачать? Как скачать Заложница через торрент | qTorrent

% Раздел Тема Автор DL S | L
Зарубежные сериалы [ 28.71 GB ] Заложница / Taken / Сезон: 2 / Серии: 1-16 из 16 [2018 WEB-DL 1080p] MVO [LostFilm] bober100 Скачать
1 | 0
Зарубежные сериалы [ 23 GB ] Заложница / Taken / Сезон: 2 / Серии: 1-16 из 16 [2018 WEB-DL 720p] MVO [NewStudio] bober100 Скачать
1 | 0
Зарубежные сериалы [ 8.6 GB ] Заложница / Taken / Сезон: 2 / Серии: 1-16 из 16 [2018 WEB-DLRip] MVO [NewStudio] bober100 Скачать
1 | 0
Зарубежные сериалы [ 24.23 GB ] Заложница / Taken / Сезон: 2 / Серии: 1-16 из 16 [2018 WEBRip 720p] MVO [Jaskier] bober100 Скачать
1 | 0
Зарубежные сериалы [ 5.72 GB ] Заложница / Taken / Сезон: 1 / Серии: 1-4 из 13 [2017 WEB-DL 720p] MVO + Original SEVMASH Скачать
1 | 0
Зарубежные сериалы [ 7.72 GB ] Заложница / Taken / Сезон: 2 / Серии 1-16 из 16 [2017 WEBRip WEB-DLRip] MVO [BaibaKo] GEKADOL Скачать
1 | 0
Зарубежные сериалы [ 25.09 GB ] Заложница / Taken / Сезон: 2 / Серии 1-16 из 16 [2017 WEBRip 720p WEB-DL 720p] MVO [BaibaKo] GEKADOL Скачать
1 | 0


Последний раз редактировалось: VaGaBoNd (2012-10-10 18:44), всего редактировалось 2 раз(а)

28-11-2019 20:33  

Отключить всю рекламу на сайте

10-10-2012 17:10 Заложница Скачать торрент  

хороша первая часть, надеюсь и вторая будет не хужеpiratbit.org



10-10-2012 17:28 Заложница Скачать торрент  

первую смотрел на одном дыхании,вторую еще не смотрел)piratbit.org



10-12-2012 19:24 Заложница Скачать торрент  

по одному трейлеру только 5 баллов я молчу про фильмpiratbit.org



    Дорогой пользователь! Огромная просьба, поблагодарите релизера, оцените раздачу и оставьте свои комментарий, если Вы скачали Заложница через торрент бесплатно! Внесите свою лепту в развитие PiratBit!
    Комментировать посты могут только пользователи прошедшие не сложную регистрацию
    Показать сообщения:    

    Заложница через торрент
    Скачать бесплатно Заложница
    Заложница скачать торрент
    Заложница смотреть онлайн
    Cкачать фильм Заложница бесплатно
    Заложница скачать торрент в хорошем качестве
    Заложница смотреть онлайн бесплатно в хорошем качестве


    Вы не можете начинать темы
    Вы не можете отвечать на сообщения
    Вы не можете редактировать свои сообщения
    Вы не можете удалять свои сообщения
    Вы не можете голосовать в опросах
    Вы не можете прикреплять файлы к сообщениям
    Вы можете скачивать файлы