Ссылка на приватное зеркало нашего сайта всего за 1$. Внимание количество ограничено!!!

2 сезон

iTunes

iTunes

1

iTunes

iTunes

iTunes

WEBRip

iTunes

30
pack

Вам бонус

ВАЖНО

!!Акция!!

Alien_RageХит недели

RePack

Horizon Zero Dawn

ИГРА 18+

pack

RePack

jed

!!Акция!!

Alien_Rage

RePack

fifa19

RePack

Assassins Creed: Odyssey

RePack

NEED FOR SPEED™ PAYBACK

4 сезон

9 сезон

Бесстыжие 9 сезон

Все сериалы

все сериалы на PB.wtf

RePack

FAR CRY 5
  

Тутанхамон: Проклятие гробницы / The Curse Of King Tut's Tomb (Рассел Малкэй.) [2006 г., фэнтези, ужасы, приключения, BDRip, MVO ] piratbit.org

Тутанхамон: Проклятие гробницы через торрент piratbit.org

Размер: 1.46 GB | Добавлен: 7 лет 11 мес. назад | Торрент скачан:147 раз
Скачать  

14-10-2012 06:58 Тутанхамон: Проклятие гробницы Скачать торрент  

Тутанхамон: Проклятие гробницы / The Curse Of King Tut's Tomb

Год выпуска: 2006
Страна: США
Жанр: фэнтези, ужасы, приключения
Продолжительность: 2:50:02
Перевод: Профессиональный (многоголосый, закадровый)

Режиссер: Рассел Малкэй.
Продюссер: С.М. Ферозеддин Аламир (Сопродюсе), Кевин Бокарде, Митч Энджел, Тина Грюал (Сопродюсе), Роберт Холми мл (Исполнительный продюсе), Барри Левинсон (Исполнительный продюсе), Ник Ломбардо (Исполнительный продюсе), Эндрю МакКейб, Майк Моран (Исполнительный продюсе), Тони Роман (Ассоциированный продюсе), Тереза Райан.
Сценарий: Дэвид Н. Титчер.
Оператор: Крис Хэнли.
Композитор: Натан Ферст.
Xудожник: Джонатан А. Карлсон, Самит Басу, Ражниш Хедао
Mонтаж: Коллин Халсли

Бюджет: $14 000 000
Премьера в мире: 11.04.2006.

зрителям, достигшим 16 лет
IMDb: 4.40 (1 267)
http://www.kinopoisk.ru/film/193855/

В ролях: Каспер Ван Дин, Джонатан Хайд, Леонор Варела, Стивен Вэддингтон, Нико Никотера, Тат Уолли, Брендан Патрикс, Патрик Туми, Малкольм Макдауэлл, Саймон Кэллоу, Том Олтер, Rajesh Balwani, Робин Дас, Парвин Дабас, Никита Ананд, Shakeel Khan, Вир Дас, Suvarchala Narayanan, Терон Д'Соуза, Дэвид Скофилд ...

Описание: Много тысяч лет назад юный фараон Тутанхамон правил Египтом. Мало кто знает подробности его жизни. И никто не знает ничего о его смерти.
В 1922 году открытие очередной гробницы фараона ставит под угрозу существование всего мира. Поиск сокровищ гробницы Тутанхамона становится вопросом жизни и смерти для двух археологов. Один из них - Дэнни Фрэмонт - хочет использовать могущество гробницы для пользы человечества. Другой - Морган Синклэйр - для обретения власти над миром.

Качество: BDRip
Формат: AVI
Видео кодек: XviD
Аудио кодек: MP3
Видео: MPEG-4 Visual, XVID, 1092 Кбит/сек, 23,976 кадра/сек, 656*368 пикселей
Аудио#1: MPEG Audio, MP3 , 128 Кбит/сек, 2канала, 48,0 КГц





Формат : AVI
Формат/Информация : Audio Video Interleave
Размер файла : 1,46 Гбайт
Продолжительность : 2 ч. 50 м.
Общий поток : 1229 Кбит/сек
Программа кодирования : VirtualDubMod 1.5.10.2 (build 2540/release)
Библиотека кодирования : VirtualDubMod build 2540/release

Видео
Идентификатор : 0
Формат : MPEG-4 Visual
Профиль формата : Advanced Simple@L5
Параметр BVOP формата : 2
Параметр QPel формата : Нет
Параметр GMC формата : Без точки перехода
Параметр матрицы формата : Выборочная
Идентификатор кодека : XVID
Идентификатор кодека/Подсказка : XviD
Продолжительность : 2 ч. 50 м.
Битрейт : 1092 Кбит/сек
Ширина : 656 пикселей
Высота : 368 пикселей
Соотношение сторон : 16:9
Частота кадров : 23,976 кадра/сек
Цветовое пространство : YUV
Субдискретизация насыщенности : 4:2:0
Битовая глубина : 8 бит
Тип развёртки : Прогрессивная
Метод сжатия : С потерями
Бит/(Пиксели*Кадры) : 0.189
Размер потока : 1,30 Гбайт (89%)
Библиотека кодирования : XviD 1.2.1 (UTC 2008-12-04)

Аудио
Идентификатор : 1
Формат : MPEG Audio
Версия формата : Version 1
Профиль формата : Layer 3
Идентификатор кодека : 55
Идентификатор кодека/Подсказка : MP3
Продолжительность : 2 ч. 50 м.
Вид битрейта : Постоянный
Битрейт : 128 Кбит/сек
Каналы : 2 канала
Частота : 48,0 КГц
Метод сжатия : С потерями
Размер потока : 156 Мбайт (10%)
Выравнивание : Соединение по промежуткам
Продолжительность промежутка : 42 мс. (1,00 видеокадр)
Время предзагрузки промежутка : 504 мс.
Библиотека кодирования : LAME3.98r
Настройки программы : -m s -V 4 -q 2 -lowpass 17 -b 128

piratbit.org



Скачать Тутанхамон: Проклятие гробницы через торрент http://pic.kartinco.top/images/1/fry2oa8zsp.jpg Скачать фильм Тутанхамон: Проклятие гробницы через торрент бесплантно в хорошем качестве Описание: Много тысяч лет назад юный фараон Тутанхамон правил Египтом. Мало кто знает подробности его жизни. И никто не знает ничего о его ... 9 10 1
Info! Золотая раздача, скачанное не засчитывается.
Торрент: Зарегистрирован [2012-10-14 06:58] · скачан: 147 раз
Статус: √ проверено
Размер: 1.46 GB
Как cкачать? Как скачать Тутанхамон: Проклятие гробницы через торрент | qTorrent



Последний раз редактировалось: lexxus350 (2012-10-14 08:16), всего редактировалось 2 раз(а)

28-11-2019 20:33  

Отключить всю рекламу на сайте

14-10-2012 07:57 Тутанхамон: Проклятие гробницы Скачать торрент  

Причём здесь 720р ?

и перевод укажиpiratbit.org



    Дорогой пользователь! Огромная просьба, поблагодарите релизера, оцените раздачу и оставьте свои комментарий, если Вы скачали Тутанхамон: Проклятие гробницы через торрент бесплатно! Внесите свою лепту в развитие PiratBit!
    Комментировать посты могут только пользователи прошедшие не сложную регистрацию
    Показать сообщения:    

    Тутанхамон: Проклятие гробницы через торрент
    Скачать бесплатно Тутанхамон: Проклятие гробницы
    Тутанхамон: Проклятие гробницы скачать торрент
    Тутанхамон: Проклятие гробницы смотреть онлайн
    Cкачать фильм Тутанхамон: Проклятие гробницы бесплатно
    Тутанхамон: Проклятие гробницы скачать торрент в хорошем качестве
    Тутанхамон: Проклятие гробницы смотреть онлайн бесплатно в хорошем качестве


    Вы не можете начинать темы
    Вы не можете отвечать на сообщения
    Вы не можете редактировать свои сообщения
    Вы не можете удалять свои сообщения
    Вы не можете голосовать в опросах
    Вы не можете прикреплять файлы к сообщениям
    Вы можете скачивать файлы