1 сезон

3 сезон

iTunes

1

iTunes

MVO

iTunes

13

1 сезон

RePack

30

Deluxe

pack

Лицензия

ВАЖНО

ИГРА 18+

pack

RePack

MK11

RePack

jed

RePack

fifa19

RePack

RDR2

RePack

NEED FOR SPEED™ PAYBACK

4 сезон

9 сезон

Бесстыжие 9 сезон

Все сериалы

все сериалы на PB.wtf

RePack

FAR CRY 5

Anonymous, добрый вечер, мы катастрофически не успеваем собрать деньги на оплату серверов, помогите нам пожалуйста 5,10,15р., для нас важна любая помощь . В качестве благодарности мы отключим Вам всю рекламу на сайте (укажите свой ник в строку Ваше имя)!

×
  
Magnet ссылка

Винчи, или Ва-банк 3 / Vinci (Юлиуш Махульский) [2004 г., комедия, криминал, DVDRip, MVO+ Оригинал] piratbit.org

Винчи, или Ва-банк 3 через торрент piratbit.org

Размер: 1.76 GB | Добавлен: 8 лет 9 мес. назад | Торрент скачан:122 раза
Скачать  

15-10-2012 08:31 Винчи, или Ва-банк 3 Скачать торрент  

Винчи, или Ва-банк 3 / Vinci

Год выпуска: 2004
Страна: Польша
Жанр: комедия, криминал
Продолжительность: 01:47:38
Перевод: Профессиональный многоголосый+ Оригинал

Режиссер: Юлиуш Махульский
Продюссер: Юлиуш Махульский, Войцех Дановски, Жариуш Гащёровски
Сценарий: Юлиуш Махульский

Премьера в мире: 17 сентября 2004

Мировой рейтинг IMDB 6.90 (1 284)


В ролях: Роберт Вечкевич, Борис Шиц, Мечислав Громбка, Марцин Дорочинский, Камила Баар, Яцек Крол, Ян Махульский, Józef Paleczka, Ежи Гралек, Mariola Pajaczkowska

Описание: После тюремной отсидки известный вор Цума выходит на свободу. Ему предоставляется уникальная возможность — организовать похищение знаменитой картины Леонардо да Винчи «Дама с горностаем».Он пытается заручиться поддержкой своего бывшего подельника Джулиана, но с ужасом обнаруживает, что тот распрощался с миром преступности и стал полицейским!

Качество: DVDRip
Формат: AVI
Видео кодек: XviD
Аудио кодек: AC3
Видео: 720x400 (1.80:1), 25 fps, XviD build 50 ~1551 kbps avg, 0.22 bit/pixel
Аудио#1: русский 48 kHz, AC3 Dolby Digital, 3/2 (L,C,R,l,r) + LFE ch, ~384 kbps [Профессиональный многоголосый]
Аудио#2: Польский 48 kHz, AC3 Dolby Digital, 3/2 (L,C,R,l,r) + LFE ch, ~384 kbps[Оригинал]





Общее
Полное имя : E:ТоррентыPiratbitVinci.avi
Формат : AVI
Формат/Информация : Audio Video Interleave
Размер файла : 1,76 Гбайт
Продолжительность : 1 ч. 47 м.
Общий поток : 2335 Кбит/сек
Программа кодирования : VirtualDubMod 1.5.10.2 (build 2540/release)

Видео
Идентификатор : 0
Формат : MPEG-4 Visual
Профиль формата : Advanced Simple@L5
Параметр BVOP формата : 1
Параметр QPel формата : Нет
Параметр GMC формата : Без точки перехода
Параметр матрицы формата : Default (MPEG)
Идентификатор кодека : XVID
Идентификатор кодека/Подсказка : XviD
Продолжительность : 1 ч. 47 м.
Битрейт : 1553 Кбит/сек
Ширина : 720 пикселей
Высота : 400 пикселей
Соотношение сторон : 16:9
Частота кадров : 25,000 кадров/сек
Цветовое пространство : YUV
Субдискретизация насыщенности : 4:2:0
Битовая глубина : 8 бит
Тип развёртки : Прогрессивная
Метод сжатия : С потерями
Бит/(Пиксели*Кадры) : 0.216
Размер потока : 1,17 Гбайт (66%)
Библиотека кодирования : XviD 1.2.1 (UTC 2008-12-04)

Аудио #1
Идентификатор : 1
Формат : AC-3
Формат/Информация : Audio Coding 3
Расширение режима : CM (complete main)
Параметр Endianness формата : Big
Идентификатор кодека : 2000
Продолжительность : 1 ч. 47 м.
Вид битрейта : Постоянный
Битрейт : 384 Кбит/сек
Каналы : 6 каналов
Расположение каналов : Front: L C R, Side: L R, LFE
Частота : 48,0 КГц
Битовая глубина : 16 бит
Метод сжатия : С потерями
Размер потока : 296 Мбайт (16%)
Выравнивание : Разделение по промежуткам
Продолжительность промежутка : 40 мс. (1,00 видеокадр)
Время предзагрузки промежутка : 500 мс.

Аудио #2
Идентификатор : 2
Формат : AC-3
Формат/Информация : Audio Coding 3
Расширение режима : CM (complete main)
Параметр Endianness формата : Big
Идентификатор кодека : 2000
Продолжительность : 1 ч. 47 м.
Вид битрейта : Постоянный
Битрейт : 384 Кбит/сек
Каналы : 6 каналов
Расположение каналов : Front: L C R, Side: L R, LFE
Частота : 48,0 КГц
Битовая глубина : 16 бит
Метод сжатия : С потерями
Размер потока : 296 Мбайт (16%)
Выравнивание : Разделение по промежуткам
Продолжительность промежутка : 40 мс. (1,00 видеокадр)
Время предзагрузки промежутка : 500 мс.

piratbit.org



Скачать Винчи, или Ва-банк 3 через торрент https://pic1.kartinco.top/images/111/xctwqydh8c.png Скачать фильм Винчи, или Ва-банк 3 через торрент бесплантно в хорошем качестве Описание: После тюремной отсидки известный вор Цума выходит на свободу. Ему предоставляется уникальная возможность — организовать похищение ... 5 10 2
Info! Золотая раздача, скачанное не засчитывается.
Торрент: Зарегистрирован [2012-10-15 08:31] · скачан: 122 раз
Статус: √ проверено
Размер: 1.76 GB
Как cкачать? Как скачать Винчи, или Ва-банк 3 через торрент | UTorrent

% Раздел Тема Автор DL S | L
Фильмы 2001-2005 [ 5 GB ] Винчи или Ва-банк 3 / Vinci [2004 DVDRemux] MVO Стpана Скачать
1 | 0

28-11-2019 20:33  

Отключить всю рекламу на сайте

15-10-2012 08:43 Винчи, или Ва-банк 3 Скачать торрент  

Приятного просмотра! piratbit.org



    Дорогой пользователь! Огромная просьба, поблагодарите релизера, оцените раздачу и оставьте свои комментарий, если Вы скачали Винчи, или Ва-банк 3 через торрент бесплатно! Внесите свою лепту в развитие PiratBit!
    Комментировать посты могут только пользователи прошедшие не сложную регистрацию
    Показать сообщения:    

    Винчи, или Ва-банк 3 через торрент
    Скачать бесплатно Винчи, или Ва-банк 3
    Винчи, или Ва-банк 3 скачать торрент
    Винчи, или Ва-банк 3 смотреть онлайн
    Cкачать фильм Винчи, или Ва-банк 3 бесплатно
    Винчи, или Ва-банк 3 скачать торрент в хорошем качестве
    Винчи, или Ва-банк 3 смотреть онлайн бесплатно в хорошем качестве


    Вы не можете начинать темы
    Вы не можете отвечать на сообщения
    Вы не можете редактировать свои сообщения
    Вы не можете удалять свои сообщения
    Вы не можете голосовать в опросах
    Вы не можете прикреплять файлы к сообщениям
    Вы можете скачивать файлы