2 сезон

iTunes

MVO

1

2 сезон

iTunes

iTunes

1 сезон

RePack

30

Ultimate

ВАЖНО

ИГРА 18+

pack

RePack

MK11
pack

Легкие деньги

RePack

jed

RePack

fifa19

RePack

RDR2

RePack

NEED FOR SPEED™ PAYBACK

4 сезон

9 сезон

Бесстыжие 9 сезон

Все сериалы

все сериалы на PB.wtf

RePack

FAR CRY 5

Anonymous, доброе утро, мы не успеваем собрать деньги на оплату серверов за декабрь и январь, помогите нам пожалуйста в это трудное время. В качестве благодарности мы отключим Вам всю рекламу на сайте (укажите свой ник в строку Ваше имя)!

×
  
Magnet ссылка

Вождь разнокожих (Егор Анашкин) [2012 г., комедия, семейный, HDRip, Оригинал,лицензия] piratbit.org

Вождь разнокожих через торрент piratbit.org

Размер: 1.46 GB | Добавлен: 8 лет 3 мес. назад | Торрент скачан:1204 раза
Скачать  

16-10-2012 03:41 Вождь разнокожих Скачать торрент  

Вождь разнокожих

Год выпуска: 2012
Страна: Россия
Жанр: комедия, семейный
Продолжительность: 01:29:56
Перевод: Оригинал
Тип релиза: Лицензия

Режиссер: Егор Анашкин
Продюссер: Илья Неретин, Тимофей Сергейцев, Дмитрий Куликов
Сценарий: Игорь Сосна, Дмитрий Зверьков

Премьера в мире: 30 августа 2012



В ролях: Дмитрий Дюжев, Мария Миронова, Григорий Сиятвинда, Игорь Ванюшкин, Семен Стругачев, Александр Числов, Виталий Гребенников, Владимир Епископосян, Виталий Кулаков

Описание: История малолетнего злого гения как нельзя точно ложится на современные, в частности, российские реалии. Это рассказ не только о разрушительной силе детских шалостей, но также и о природе их возникновения. Будущий фильм — не просто развлекательная картина. На экране — проблемы отношений нынешних детей и взрослых. Это история большого современного мегаполиса, вечно занятых родителей, у которых дети предоставлены, по большей части, общению с современными техническими средствами, но практически лишены эмоционального контакта как с родителями, так и со сверстниками. Наша цель сделать увлекательный и весёлый фильм, понятный и близкий зрителям всех возрастов, сочетающий лучшие традиции детской и семейной комедии.

Качество: HDRip [рип с Blu-Ray]
Формат: AVI
Видео кодек: XviD
Аудио кодек: AC3
Видео: 720x384 (1.88:1), 25 fps, XviD build 50 ~1865 kbps avg, 0.27 bit/pixel
Аудио#1: 48 kHz, AC3 Dolby Digital, 3/2 (L,C,R,l,r) + LFE ch, ~448 kbps
Релиз от:

General
Complete name Vozhd.raznokozhih.2012.O.HDRip.1400.avi
Format : AVI
Format/Info : Audio Video Interleave
File size : 1.46 GiB
Duration : 1h 29mn
Overall bit rate : 2 323 Kbps
Movie name : Vozhd.raznokozhih.2012.O.HDRip.IRONCLUB
Director : http://ironclub.tv/
Genre : Comedy/Family
Writing application : VirtualDubMod 1.5.10.2 (build 2540/release)

Video
ID : 0
Format : MPEG-4 Visual
Format profile : Advanced Simple@L5
Format settings, BVOP : 2
Format settings, QPel : No
Format settings, GMC : No warppoints
Format settings, Matrix : Custom
Codec ID : XVID
Codec ID/Hint : XviD
Duration : 1h 29mn
Bit rate : 1 866 Kbps
Width : 720 pixels
Height : 384 pixels
Display aspect ratio : 1.875
Frame rate : 25.000 fps
Color space : YUV
Chroma subsampling : 4:2:0
Bit depth : 8 bits
Scan type : Progressive
Compression mode : Lossy
Bits/(Pixel*Frame) : 0.270
Stream size : 1.17 GiB (80%)
Writing library : XviD 1.2.1 (UTC 2008-12-04)

Audio
ID : 1
Format : AC-3
Format/Info : Audio Coding 3
Mode extension : CM (complete main)
Codec ID : 2000
Duration : 1h 29mn
Bit rate mode : Constant
Bit rate : 448 Kbps
Channel(s) : 6 channels
Channel positions : Front: L C R, Side: L R, LFE
Sampling rate : 48.0 KHz
Bit depth : 16 bits
Compression mode : Lossy
Stream size : 288 MiB (19%)
Alignment : Split accross interleaves
Interleave, duration : 40 ms (1.00 video frame)
Interleave, preload duration : 500 ms

piratbit.org



Скачать Вождь разнокожих через торрент https://pic.kartinco.top/images/1/oh82zqbq5t.png Скачать фильм Вождь разнокожих через торрент бесплантно в хорошем качестве Описание: История малолетнего злого гения как нельзя точно ложится на современные, в частности, российские реалии. Это рассказ не только о ... 5 10 1
Info! Золотая раздача, скачанное не засчитывается.
Торрент: Зарегистрирован [2012-10-16 03:41] · скачан: 1 204 раз
Статус: √ проверено
Размер: 1.46 GB
Как cкачать? Как скачать Вождь разнокожих через торрент | UTorrent

% Раздел Тема Автор DL S | L
Наши фильмы (HD, WEB-DL 720p, 1080p) [ 4.4 GB ] Вождь разнокожих [2012 BDRip 720p Оригинал] Melind@ Скачать
1 | 0
Наши фильмы 2012 [ 1.37 GB ] Вождь разнокожих [2012 DVDRip лицензия] SD Скачать
1 | 0
Наши фильмы (DVD фильмы) [ 2.86 GB ] Вождь разнокожих [2012 DVD5] R5 voovaz Скачать
1 | 0

28-11-2019 20:33  

Отключить всю рекламу на сайте

16-10-2012 05:24 Вождь разнокожих Скачать торрент  

как фильм ? стоит потраченного времени ?piratbit.org



    Дорогой пользователь! Огромная просьба, поблагодарите релизера, оцените раздачу и оставьте свои комментарий, если Вы скачали Вождь разнокожих через торрент бесплатно! Внесите свою лепту в развитие PiratBit!
    Комментировать посты могут только пользователи прошедшие не сложную регистрацию
    Показать сообщения:    

    Вождь разнокожих через торрент
    Скачать бесплатно Вождь разнокожих
    Вождь разнокожих скачать торрент
    Вождь разнокожих смотреть онлайн
    Cкачать фильм Вождь разнокожих бесплатно
    Вождь разнокожих скачать торрент в хорошем качестве
    Вождь разнокожих смотреть онлайн бесплатно в хорошем качестве


    Вы не можете начинать темы
    Вы не можете отвечать на сообщения
    Вы не можете редактировать свои сообщения
    Вы не можете удалять свои сообщения
    Вы не можете голосовать в опросах
    Вы не можете прикреплять файлы к сообщениям
    Вы можете скачивать файлы