2 сезон

iTunes

MVO

1

2 сезон

iTunes

iTunes

1 сезон

RePack

30

Новинка

ВАЖНО

ИГРА 18+

pack

RePack

MK11
pack

Легкие деньги

RePack

jed

RePack

fifa19

RePack

RDR2

RePack

NEED FOR SPEED™ PAYBACK

4 сезон

9 сезон

Бесстыжие 9 сезон

Все сериалы

все сериалы на PB.wtf

RePack

FAR CRY 5

Anonymous, доброй ночи, мы не успеваем собрать деньги на оплату серверов за декабрь и январь, помогите нам пожалуйста в это трудное время. В качестве благодарности мы отключим Вам всю рекламу на сайте (укажите свой ник в строку Ваше имя)!

×
  
Magnet ссылка

Орда (Андрей Прошкин) [2012 г., биография,исторический, BDRip-AVC, Оригинал] piratbit.org

Орда через торрент piratbit.org

Размер: 2.18 GB | Добавлен: 8 лет 3 мес. назад | Торрент скачан:758 раз
Скачать  

16-10-2012 08:16 Орда Скачать торрент  

Орда

Год выпуска: 2012
Страна: Россия, Pravoslavnaya Encyclopaedia
Жанр: биография,исторический
Продолжительность: 02:10:44
Перевод: Оригинал
Тип релиза: Лицензия

Режиссер: Андрей Прошкин

В ролях: Максим Суханов, Андрей Панин, Виталий Хаев, Александр Яценко, Петр Янданэ, Евгений Харитонов, Юрий Пронин, Роза Хайруллина, Виталий Гусев, Юнчен Жуань, Алексей Шевченков, Даулет Абдыгапаров, Толепберген Байсакалов, Моге Ооржак

Описание: Орда. Веками это слово означало кровавые набеги и унизительную дань для многих стран и народов. Странный и страшный мир со своими законами и обычаями. В середине XIV века Влacть Орды простирается над большей частью Евразии. Платит дань восточному соседу и Московское княжество. Когда ханшу Тайдулу сражает тяжелый недуг, ни один целитель оказывается не силах ей помочь. Тогда в Орду вызывают «московского колдуна» митрополита Алексия. На карту поставлена судьба всего княжества. Однако и сам Алексий не знает, чем обернется его путешествие в Орду.



Качество: BDRip-AVC [рип с Blu-Ray]
Формат: MKV
Видео кодек: AVC
Аудио кодек: AC3
Видео: MPEG-4 AVC, 1959 Кбит/с, 1024x432, 24 кадр/с
Аудио: AC3, 6 ch, 448 Кбит/с, 48,0 КГц
Релиз от:

Общее
Уникальный идентификатор : 197680457957781084408806852562472746516 (0x94B7DF102530643F95613D10FD2D3E14)
Полное имя : D:Мои раздачиOrda.2012.BDRip.AVC.rip by Odessit.mkv
Формат : Matroska
Версия формата : Version 2
Размер файла : 2,18 Гбайт
Продолжительность : 2 ч. 9 м.
Режим общего битрейта : Переменный
Общий поток : 2409 Кбит/сек
Название фильма : ODESSIT
Дата кодирования : UTC 2012-10-16 05:37:38
Программа кодирования : mkvmerge v5.8.0 ('No Sleep / Pillow') built on Sep 2 2012 15:37:04
Библиотека кодирования : libebml v1.2.3 + libmatroska v1.3.0

Видео
Идентификатор : 1
Формат : AVC
Формат/Информация : Advanced Video Codec
Профиль формата : High@L4.1
Параметр CABAC формата : Да
Параметр ReFrames формата : 3 кадра
Идентификатор кодека : V_MPEG4/ISO/AVC
Продолжительность : 2 ч. 9 м.
Вид битрейта : Переменный
Битрейт : 1959 Кбит/сек
Максимальный битрейт : 14,0 Мбит/сек
Ширина : 1024 пикселя
Высота : 432 пикселя
Соотношение сторон : 2,40:1
Режим частоты кадров : Постоянный
Частота кадров : 24,000 кадра/сек
Цветовое пространство : YUV
Субдискретизация насыщенности : 4:2:0
Битовая глубина : 8 бит
Тип развёртки : Прогрессивная
Бит/(Пиксели*Кадры) : 0.185
Размер потока : 1,73 Гбайт (79%)
Библиотека кодирования : x264 core 125 r2200 999b753
Настройки программы : cabac=1 / ref=3 / deblock=1:-1:-1 / analyse=0x3:0x113 / me=umh / subme=7 / psy=1 / psy_rd=1.00:0.00 / mixed_ref=1 / me_range=16 / chroma_me=1 / trellis=1 / 8x8dct=1 / cqm=0 / deadzone=21,11 / fast_pskip=1 / chroma_qp_offset=-2 / threads=3 / lookahead_threads=1 / sliced_threads=0 / slices=4 / nr=0 / decimate=1 / interlaced=0 / bluray_compat=1 / constrained_intra=0 / bframes=3 / b_pyramid=1 / b_adapt=1 / b_bias=0 / direct=1 / weightb=1 / open_gop=1 / weightp=1 / keyint=24 / keyint_min=1 / scenecut=40 / intra_refresh=0 / rc_lookahead=24 / rc=2pass / mbtree=1 / bitrate=1959 / ratetol=1.0 / qcomp=0.60 / qpmin=0 / qpmax=69 / qpstep=4 / cplxblur=20.0 / qblur=0.5 / vbv_maxrate=14000 / vbv_bufsize=14000 / nal_hrd=vbr / ip_ratio=1.40 / aq=1:1.00
Язык : English
Default : Да
Forced : Нет

Аудио
Идентификатор : 2
Формат : AC-3
Формат/Информация : Audio Coding 3
Расширение режима : CM (complete main)
Параметр Endianness формата : Big
Идентификатор кодека : A_AC3
Продолжительность : 2 ч. 9 м.
Вид битрейта : Постоянный
Битрейт : 448 Кбит/сек
Каналы : 6 каналов
Расположение каналов : Front: L C R, Side: L R, LFE
Частота : 48,0 КГц
Битовая глубина : 16 бит
Метод сжатия : С потерями
Размер потока : 415 Мбайт (19%)
Default : Да
Forced : Нет

piratbit.org



Скачать Орда через торрент https://pic.kartinco.top/images/1/gosfwjg2pv.jpg Скачать фильм Орда через торрент бесплантно в хорошем качестве Описание: Орда. Веками это слово означало кровавые набеги и унизительную дань для многих стран и народов. Странный и страшный мир со своими ... 9.8 10 4
Info! Золотая раздача, скачанное не засчитывается.
Торрент: Зарегистрирован [2012-10-16 08:16] · скачан: 758 раз
Статус: √ проверено
Размер: 2.18 GB
Как cкачать? Как скачать Орда через торрент | UTorrent

% Раздел Тема Автор DL S | L
Фильмы 2010 [ 1.36 GB ] Немыслимое / Unthinkable [2010 HDRip лицензия] SD Скачать
1 | 0
Рок, Панк, Альтернатива (mp3) [ 123 MB ] Дети - Три аккорда 1989 / MP3 / 320 kbps / Rock Folk megatoxa Скачать
1 | 0
Фильмы 2010 [ 1.54 GB ] Немыслимое / Unthinkable [2010 BDRip] Гоблин azagoth_666 Скачать
1 | 0
Фильмы 2013 [DVDrip, WEB-DLRip, HDrip] [ 1.46 GB ] Византия / Byzantium [2012 Ирландия WEB-DLRip [лицензия] Ворон Скачать
1 | 0
Зарубежные сериалы [ 4.02 GB ] Борджиа / The Borgias / Cезон: 3 [2013 история HDTVRip MVO закадровый ] aaa222 Скачать
1 | 0
Зарубежные сериалы [ 5.63 GB ] Борджиа / The Borgias / Cезон: 2 [2012 история HDTV MVO закадровый ] F.U. Скачать
1 | 0
Зарубежные сериалы [ 4.19 GB ] Борджиа / The Borgias - Season 1/ 9 серий из 9 [2011 история WEB-DLRip] LostFilm [HellBoy] Скачать
1 | 0

28-11-2019 20:33  

Отключить всю рекламу на сайте

16-10-2012 08:28 Орда Скачать торрент  

Odessa
Указывайте частоту аудио. Подправил.
http://pb.wtf/topic/13990
piratbit.org



16-10-2012 08:39 Орда Скачать торрент  

кэп писал(а):

Odessa
Указывайте частоту аудио. Подправил.
http://pb.wtf/topic/13990

Спасибо.piratbit.org



16-10-2012 10:02 Орда Скачать торрент  

а как фильм то? качать стоит?piratbit.org



    Дорогой пользователь! Огромная просьба, поблагодарите релизера, оцените раздачу и оставьте свои комментарий, если Вы скачали Орда через торрент бесплатно! Внесите свою лепту в развитие PiratBit!
    Комментировать посты могут только пользователи прошедшие не сложную регистрацию
    Показать сообщения:    

    Орда через торрент
    Скачать бесплатно Орда
    Орда скачать торрент
    Орда смотреть онлайн
    Cкачать фильм Орда бесплатно
    Орда скачать торрент в хорошем качестве
    Орда смотреть онлайн бесплатно в хорошем качестве


    Вы не можете начинать темы
    Вы не можете отвечать на сообщения
    Вы не можете редактировать свои сообщения
    Вы не можете удалять свои сообщения
    Вы не можете голосовать в опросах
    Вы не можете прикреплять файлы к сообщениям
    Вы можете скачивать файлы