2 сезон

iTunes

MVO

1

2 сезон

iTunes

iTunes

1 сезон

RePack

30

Ultimate

ВАЖНО

ИГРА 18+

pack

RePack

MK11
pack

Легкие деньги

RePack

jed

RePack

fifa19

RePack

RDR2

RePack

NEED FOR SPEED™ PAYBACK

4 сезон

9 сезон

Бесстыжие 9 сезон

Все сериалы

все сериалы на PB.wtf

RePack

FAR CRY 5

Anonymous, добрый вечер, мы не успеваем собрать деньги на оплату серверов за декабрь и январь, помогите нам пожалуйста в это трудное время. В качестве благодарности мы отключим Вам всю рекламу на сайте (укажите свой ник в строку Ваше имя)!

×
  
Magnet ссылка

Атомный Иван (Василий Бархатов) [2012 г., комедия, мелодрама, DVDRip, Оригинал,лицензия ] piratbit.org

Атомный Иван через торрент piratbit.org

Размер: 1.37 GB | Добавлен: 8 лет 3 мес. назад | Торрент скачан:1118 раз
Скачать  

19-10-2012 18:37 Атомный Иван Скачать торрент  

Атомный Иван

Год выпуска: 2012
Страна: Россия
Жанр: комедия, мелодрама
Продолжительность: 01:31:03
Перевод: Оригинал
Тип релиза: Лицензия

Режиссер: Василий Бархатов
Продюссер: Елена Гликман, Ярослав Живов
Сценарий: Василий Бархатов, Максим Курочкин

Бюджет: $1 500 000



В ролях: Григорий Добрыгин, Юлия Снигирь, Екатерина Васильева, Марина Голуб, Алексей Горбунов, Евгения Дмитриева, Алексей Колубков, Денис Суханов

Описание: История разворачивается в городе-спутнике одной из крупнейших АЭС. Молодой учёный Ваня, как и его родители, занимается атомной энергетикой, но, как он сам считает, — не по призванию, а только из-за давней любви к бывшей однокурснице Тане. Она, напротив, увлечена своим делом, амбициозна и требовательна в личных отношениях. Однажды Таня решает разорвать эти отношения, потому что не видит в инфантильном и легкомысленном Ване надежного спутника жизни. Но неожиданные события, случившиеся в атомном городке, всё ставят на свои места: героям удаётся обрести и настоящее призвание, и настоящую любовь.

Качество: DVDRip
Формат: AVI
Видео кодек: XviD
Аудио кодек: AC3
Видео: 720x304 (2.37:1), 25 fps, XviD build 50 ~1765 kbps avg, 0.32 bit/pixel
Аудио#1: 48 kHz, AC3 Dolby Digital, 3/2 (L,C,R,l,r) + LFE ch, ~384 kbps

Atomnyj.Ivan.2012.O.DVDRip.avi
General
Complete name : D:КиноAtomnyj.Ivan.2012.O.DVDRip.avi
Format : AVI
Format/Info : Audio Video Interleave
File size : 1.37 GiB
Duration : 1h 31mn
Overall bit rate : 2 159 Kbps
Movie name : Atomnyj.Ivan.2011.O.DVDRip.IRONCLUB
Director : IRONCLUB
Genre : Drama / Romance
Writing application : VirtualDubMod 1.5.10.2 (build 2540/release)
Original source form/Name : Movie
Copyright : http://ironclub.tv/
Video #0
ID : 0
Format : MPEG-4 Visual
Format profile : Advanced Simple@L5
Format settings, BVOP : Yes
Format settings, QPel : No
Format settings, GMC : No warppoints
Format settings, Matrix : Custom
Codec ID : XVID
Codec ID/Hint : XviD
Duration : 1h 31mn
Bit rate : 1 765 Kbps
Width : 720 pixels
Height : 304 pixels
Display aspect ratio : 2.35:1
Frame rate : 25.000 fps
Color space : YUV
Chroma subsampling : 4:2:0
Bit depth : 8 bits
Scan type : Progressive
Compression mode : Lossy
Bits/(Pixel*Frame) : 0.323
Stream size : 1.12 GiB (82%)
Writing library : XviD 1.2.1 (UTC 2008-12-04)
Audio #1
ID : 1
Format : AC-3
Format/Info : Audio Coding 3
Mode extension : CM (complete main)
Codec ID : 2000
Duration : 1h 31mn
Bit rate mode : Constant
Bit rate : 384 Kbps
Channel(s) : 6 channels
Channel positions : Front: L C R, Side: L R, LFE
Sampling rate : 48.0 KHz
Bit depth : 16 bits
Compression mode : Lossy
Stream size : 250 MiB (18%)
Alignment : Split accross interleaves
Interleave, duration : 40 ms (1.00 video frame)
Interleave, preload duration : 500 ms

piratbit.org



Скачать Атомный Иван через торрент http://pic.kartinco.top/images/1/xohgyxljmt.jpg Скачать фильм Атомный Иван через торрент бесплантно в хорошем качестве Описание: История разворачивается в городе-спутнике одной из крупнейших АЭС. Молодой учёный Ваня, как и его родители, занимается атомной ... 10 10 1
Info! Золотая раздача, скачанное не засчитывается.
Торрент: Зарегистрирован [2012-10-19 18:37] · скачан: 1 118 раз
Статус: √ проверено
Размер: 1.37 GB
Как cкачать? Как скачать Атомный Иван через торрент | UTorrent

% Раздел Тема Автор DL S | L
Наши фильмы (HD, WEB-DL 720p, 1080p) [ 1.52 GB ] Атомный Иван [2012 WEB-DLRip 720p] [Русский] smaster Скачать
1 | 0

28-11-2019 20:33  

Отключить всю рекламу на сайте

19-10-2012 18:47 Атомный Иван Скачать торрент  

Очередная русская какаpiratbit.org



19-10-2012 18:51 Атомный Иван Скачать торрент  

gandoster писал(а):

Очередная русская кака

Вам в другой раздел,где раздают каку от янки. :ad:piratbit.org



19-10-2012 19:14 Атомный Иван Скачать торрент  

Поддерживаю 1 коммент, пока еще в россии не научились снимать хорошее кино)piratbit.org



19-10-2012 19:16 Атомный Иван Скачать торрент  

Очередной Шлак piratbit.org



19-10-2012 19:54 Атомный Иван Скачать торрент  

ахахахаха ну и название :lol: , спасибо поржал piratbit.org



19-10-2012 20:07 Атомный Иван Скачать торрент  

Splen писал(а):

ахахахаха ну и название :lol: , спасибо поржал

Я бы поржал если бы это было название фильма от янки , а так лишь остается посочувствовать русскому кинематографу. piratbit.org



19-10-2012 20:53 Атомный Иван Скачать торрент  

Зато актрисы красивые :hospita: :troll:piratbit.org



27-10-2012 08:35 Атомный Иван Скачать торрент  

Denzzell писал(а):

Поддерживаю 1 коммент, пока еще в россии не научились снимать хорошее кино)

А как же бой с тенью 1-3, Обитаемый остров 1-2, и многое другое.piratbit.org



29-10-2012 11:48 Атомный Иван Скачать торрент  

Прежде чем писать тупые комменты типа "ака-кака", не посмотрев фильм, прочитали бы, хотя бы, комментарии с Кинопоиска. Фильм, действительно, неплохой, не то что г... с упырями из "УЕ".piratbit.org



30-10-2012 05:44 Атомный Иван Скачать торрент  

Спасибо.Мне фильм понравился.На любителя.piratbit.org



11-11-2012 16:15 Атомный Иван Скачать торрент  

фильм конечно одноразовый. Но посмотрел этот один раз с удовольствиемpiratbit.org



16-11-2012 10:23 Атомный Иван Скачать торрент  

Очередной выкидыш росийского (постсоветского) недокинематографа.piratbit.org



    Дорогой пользователь! Огромная просьба, поблагодарите релизера, оцените раздачу и оставьте свои комментарий, если Вы скачали Атомный Иван через торрент бесплатно! Внесите свою лепту в развитие PiratBit!
    Комментировать посты могут только пользователи прошедшие не сложную регистрацию
    Показать сообщения:    

    Атомный Иван через торрент
    Скачать бесплатно Атомный Иван
    Атомный Иван скачать торрент
    Атомный Иван смотреть онлайн
    Cкачать фильм Атомный Иван бесплатно
    Атомный Иван скачать торрент в хорошем качестве
    Атомный Иван смотреть онлайн бесплатно в хорошем качестве


    Вы не можете начинать темы
    Вы не можете отвечать на сообщения
    Вы не можете редактировать свои сообщения
    Вы не можете удалять свои сообщения
    Вы не можете голосовать в опросах
    Вы не можете прикреплять файлы к сообщениям
    Вы можете скачивать файлы