1 сезон

iTunes

iTunes

1

Line

MVO

iTunes

13

1 сезон

RePack

30

Deluxe

pack

Лицензия

ВАЖНО

ИГРА 18+

pack

RePack

MK11

RePack

jed

RePack

fifa19

RePack

RDR2

RePack

NEED FOR SPEED™ PAYBACK

4 сезон

9 сезон

Бесстыжие 9 сезон

Все сериалы

все сериалы на PB.wtf

RePack

FAR CRY 5

Anonymous, доброй ночи, мы катастрофически не успеваем собрать деньги на оплату серверов, помогите нам пожалуйста 5,10,15р., для нас важна любая помощь . В качестве благодарности мы отключим Вам всю рекламу на сайте (укажите свой ник в строку Ваше имя)!

×
  
Magnet ссылка

Дом 1000 трупов / House of 1000 Corpses (Роб Зомби / Rob Zombie) [2003, CША, Ужасы, BDRip, Wegas Digital] piratbit.org

Дом 1000 трупов через торрент piratbit.org

Размер: 2.19 GB | Добавлен: 8 лет 9 мес. назад | Торрент скачан:355 раз
Скачать  

20-10-2012 17:31 Дом 1000 трупов Скачать торрент  

Дом 1000 Трупов / House of 1000 Coprses«Жизнь и Смерть Бессмысленны... И Боль - это Бог»
Год выпуска: 2003
Страна: США
Жанр: Ужасы
Продолжительность: 01:28:53
Перевод: Дублированный + Двухголосый + Двухголосый + Одноголосый
Описание фильма:
Что нужно для того, чтобы оказаться в доме тысячи Трупов? Да сущий пустячок. Однажды застрять в дороге с пустым бензобаком и спущенным колесом.
Так и произошло с двумя парочками, которые на ночь глядя попадают на "парад смерти" организованный милой семейкой, каждый из членов которой всегда готов перерезать Вам горло или продырявить грудную клетку для того, чтобы пополнить свою коллекцию мертвых человеческих тел...
Режиссер: Роб Зомби / Rob Zombie
Актеры: Сид Хэйг (Captain Spaulding), Билл Моусли (Otis Driftwood), Шери Мун Зомби (Baby Firefly), Карен Блэк (Mother Firefly), Крис Хардвик (Jerry Goldsmith), Эрин Дэниелс (Denise Willis), Дженнифер Джостин (Mary Knowles), Рэйн Уилсон (Bill Hudley), Уолтон Гоггинс (Deputy Steve Naish), Том Таулз (Lieutenant George Wydell), Мэттью МакГрори (Tiny Firefly), Роберт Аллен Мюкс (Rufus 'R.J.' Firefly Jr.)
Дата мировой премьеры: 13 марта 2003
Дата российской премьеры: 3 июля 2003
Дата выхода DVD релиза: 9 апреля 2009

Качество: BDRip
Исходник: BDRip 1080
Автор Рипа: Wegas Digital
Формат: AVI
Видео кодек: XviD
Аудио кодек: AC3
Видео: 720x400 (1.80:1), 23.976 fps, XviD MPEG-4, 2343 kbps, 0.34 bit/pixel
Аудио 1: Русский AC3 2.1, 48 KHz, 384 kbps Полное Дублирование
Аудио 2: Русский AC3 5.1, 48 KHz, 384 kbps Многоголосый, Закадровый
Аудио 3: Русский AC3 2.0, 48 KHz, 192 kbps Двухголосый, Закадровый
Аудио 4: Русский AC3 2.0, 48 KHz, 192 kbps Авторский, Одноголосый Закадровый (Евгений Рудой)
Размер: 2240.99 Mb (1/2 DVD-R)
Релиз:
Общее
Полное имя : Dom.1000.Trupov.Quad.BDRip.XviD.AC3.-WegasDigital.avi
Формат : AVI
Формат/Информация : Audio Video Interleave
Профиль формата : OpenDML
Размер файла : 2,19 Гбайт
Продолжительность : 1 ч. 28 м.
Общий поток : 3525 Кбит/сек
Название фильма : Дом 1000 Трупов (BDRip By Wegas Digital)
Режиссёр : Wegas (BDRip 1080p)
Жанр : Horror
Программа кодирования : VirtualDubModRus 1.5.10.2 (build 2542/release)
Формат оригинала/Имя : Movie
Правообладатель : Wegas Digital
Примечание : 12.10.2012

Видео
Идентификатор : 0
Формат : MPEG-4 Visual
Профиль формата : Advanced Simple@L5
Параметр BVOP формата : 2
Параметр QPel формата : Нет
Параметр GMC формата : Без точки перехода
Параметр матрицы формата : Выборочная
Режим смешивания : Сжатый битовый поток
Идентификатор кодека : XVID
Идентификатор кодека/Подсказка : XviD
Продолжительность : 1 ч. 28 м.
Битрейт : 2343 Кбит/сек
Ширина : 720 пикселей
Высота : 400 пикселей
Соотношение сторон : 16:9
Частота кадров : 23,976 кадра/сек
Цветовое пространство : YUV
Субдискретизация насыщенности : 4:2:0
Битовая глубина : 8 бит
Тип развёртки : Прогрессивная
Метод сжатия : С потерями
Бит/(Пиксели*Кадры) : 0.339
Размер потока : 1,45 Гбайт (66%)
Библиотека кодирования : XviD 65

Аудио #1
Идентификатор : 1
Формат : AC-3
Формат/Информация : Audio Coding 3
Расширение режима : CM (complete main)
Параметр Endianness формата : Big
Идентификатор кодека : 2000
Продолжительность : 1 ч. 28 м.
Вид битрейта : Постоянный
Битрейт : 384 Кбит/сек
Каналы : 6 каналов
Расположение каналов : Front: L C R, Side: L R, LFE
Частота : 48,0 КГц
Битовая глубина : 16 бит
Метод сжатия : С потерями
Размер потока : 244 Мбайт (11%)
Выравнивание : Разделение по промежуткам
Продолжительность промежутка : 42 мс. (1,00 видеокадр)
Время предзагрузки промежутка : 500 мс.

Аудио #2
Идентификатор : 2
Формат : AC-3
Формат/Информация : Audio Coding 3
Расширение режима : CM (complete main)
Параметр Endianness формата : Big
Идентификатор кодека : 2000
Продолжительность : 1 ч. 28 м.
Вид битрейта : Постоянный
Битрейт : 384 Кбит/сек
Каналы : 6 каналов
Расположение каналов : Front: L C R, Side: L R, LFE
Частота : 48,0 КГц
Битовая глубина : 16 бит
Метод сжатия : С потерями
Размер потока : 244 Мбайт (11%)
Выравнивание : Разделение по промежуткам
Продолжительность промежутка : 42 мс. (1,00 видеокадр)
Время предзагрузки промежутка : 500 мс.

Аудио #3
Идентификатор : 3
Формат : AC-3
Формат/Информация : Audio Coding 3
Расширение режима : CM (complete main)
Параметр Endianness формата : Big
Идентификатор кодека : 2000
Продолжительность : 1 ч. 28 м.
Вид битрейта : Постоянный
Битрейт : 192 Кбит/сек
Каналы : 2 канала
Расположение каналов : Front: L R
Частота : 48,0 КГц
Битовая глубина : 16 бит
Метод сжатия : С потерями
Размер потока : 122 Мбайт (5%)
Выравнивание : Разделение по промежуткам
Продолжительность промежутка : 42 мс. (1,00 видеокадр)
Время предзагрузки промежутка : 500 мс.

Аудио #4
Идентификатор : 4
Формат : AC-3
Формат/Информация : Audio Coding 3
Расширение режима : CM (complete main)
Параметр Endianness формата : Big
Идентификатор кодека : 2000
Продолжительность : 1 ч. 28 м.
Вид битрейта : Постоянный
Битрейт : 192 Кбит/сек
Каналы : 2 канала
Расположение каналов : Front: L R
Частота : 48,0 КГц
Битовая глубина : 16 бит
Метод сжатия : С потерями
Размер потока : 122 Мбайт (5%)
Выравнивание : Разделение по промежуткам
Продолжительность промежутка : 42 мс. (1,00 видеокадр)
Время предзагрузки промежутка : 500 мс.


piratbit.org



Скачать Дом 1000 трупов через торрент http://i45.fastpic.ru/big/2012/1020/00/fe02e0c1e4f4451d8a1d2fc6fea67f00.jpg Скачать фильм Дом 1000 трупов через торрент бесплантно в хорошем качестве Описание фильма:Что нужно для того, чтобы оказаться в доме тысячи Трупов? Да сущий пустячок. Однажды застрять в дороге с пустым бензобаком ... 9.2 10 5
Info! Золотая раздача, скачанное не засчитывается.
Торрент: Зарегистрирован [2012-10-20 17:31] · скачан: 355 раз
Статус: √ проверено
Размер: 2.19 GB
Как cкачать? Как скачать Дом 1000 трупов через торрент | UTorrent

% Раздел Тема Автор DL S | L
Фильмы [HD 720p, 1080p] (Хороший звук DUB, MVO) [ 16.65 GB ] Дом 1000 трупов: Дилогия / House of 1000 Corpses: Dilogy [2003-2005 BDRip 1080p] Dub AVO -Lexx- Скачать
1 | 0


Последний раз редактировалось: Wegas Digital (2012-10-21 07:53), всего редактировалось 5 раз(а)

28-11-2019 20:33  

Отключить всю рекламу на сайте


20-10-2012 20:00 Дом 1000 трупов Скачать торрент  

очешуенный фильм! роб форевер!piratbit.org



25-10-2012 10:41 Дом 1000 трупов Скачать торрент  

на один раз посмотреть можно, спасибоpiratbit.org



    Дорогой пользователь! Огромная просьба, поблагодарите релизера, оцените раздачу и оставьте свои комментарий, если Вы скачали Дом 1000 трупов через торрент бесплатно! Внесите свою лепту в развитие PiratBit!
    Комментировать посты могут только пользователи прошедшие не сложную регистрацию
    Показать сообщения:    

    Дом 1000 трупов через торрент
    Скачать бесплатно Дом 1000 трупов
    Дом 1000 трупов скачать торрент
    Дом 1000 трупов смотреть онлайн
    Cкачать фильм Дом 1000 трупов бесплатно
    Дом 1000 трупов скачать торрент в хорошем качестве
    Дом 1000 трупов смотреть онлайн бесплатно в хорошем качестве


    Вы не можете начинать темы
    Вы не можете отвечать на сообщения
    Вы не можете редактировать свои сообщения
    Вы не можете удалять свои сообщения
    Вы не можете голосовать в опросах
    Вы не можете прикреплять файлы к сообщениям
    Вы можете скачивать файлы