Ссылка на приватное зеркало нашего сайта всего за 1$. Внимание количество ограничено!!!

2 сезон

iTunes

iTunes

1

iTunes

iTunes

iTunes

WEBRip

iTunes

30
pack

Вам бонус

ВАЖНО

!!Акция!!

Alien_RageХит недели

RePack

Horizon Zero Dawn

ИГРА 18+

pack

RePack

jed

!!Акция!!

Alien_Rage

RePack

fifa19

RePack

Assassins Creed: Odyssey

RePack

NEED FOR SPEED™ PAYBACK

4 сезон

9 сезон

Бесстыжие 9 сезон

Все сериалы

все сериалы на PB.wtf

RePack

FAR CRY 5
  

Мститель / The Spirit (Фрэнк Миллер) [2008, Боевик, триллер, комедия, приключения, BDRip-AVC] DUB + Original + Sub (rus., eng.) piratbit.org

Мститель через торрент piratbit.org

Размер: 2.18 GB | Добавлен: 7 лет 11 мес. назад | Торрент скачан:334 раза
Скачать  

21-10-2012 11:58 Мститель Скачать торрент  

Мститель / The Spirit


Год выпуска: 2008
Страна: США / Continental Entertainment Group (CEG), Lionsgate, Media Magik Entertainment
Жанр: Боевик, триллер, комедия, приключения
Продолжительность: 01:42:36
Перевод: Профессиональный (полное дублирование)
Субтитры: Русские, русские (SDH), английские
Режиссер: Фрэнк Миллер

В ролях: Гэбриел Махт, Скарлетт Йоханссон, Сэмюэл Л. Джексон, Ева Мендес, Джейми Кинг, Эрик Бальфур, Паз Вега, Стана Катич, Сара Полсон, Джонни Симмонз, Дэн Лория, Луис Ломбарди, Ричард Портноу, Пэмела Финли, Чад Брамметт, Бенджамин Петри, Марина Лион, Фрэнк Бонд, Меган Холавэй, Джениа Михаэлла, Фуед Заяни, Аль Гото, Дэн Геррити, Берли Кейн, Хью Эллиот, Дэниэл Хубберт, Майкл-Дэвид Арагон, Уильям Е. Маршалл, Майкл С. Уолтер

Описание: Денни Кольт, надев маску, стал сражаться с преступным миром под именем Мститель. Решив сделать жизнь граждан своего родного города безопасной, Мститель начал преследовать всех негодяев и искать пути уничтожения самого ужасного из них, известного под именем Спрут. Вокруг Мстителя всегда полно роковых женщин: блестящая и холодная Силкен Флосс, соблазнительная похитительница драгоценностей Санд Сареф, сильная и умная доктор Эллен Долан, прекрасно владеющая ножом танцовщица по имени Парижанка…
Бюджет: $60 000 000
Сборы в мире: $39 031 337
Сборы в России: $940 806

Официальный сайт
Качество: BDRip-AVC [Blu-Ray Remux]
Формат: MKV
Видео кодек: H.264
Аудио кодек: AC3
Видео: 1056x440 (2,40:1), 23,976 кадр/сек, 2274 Кбит/сек, 0.204 bit/pixel
Аудио#1: 48 kHz, AC3 Dolby Digital, 3/2 (L,C,R,l,r) + LFE ch, ~384.00 kbps avg | RUS
Аудио#2: 48 kHz, AC3 Dolby Digital, 3/2 (L,C,R,l,r) + LFE ch, ~384.00 kbps avg | ENG


Общее
Уникальный идентификатор : 237583722040896791133462510208939518263 (0xB2BCF5E08F314525ADD2E1C4BC28E937)
Полное имя : Mstitel'.2008.D.BDRip.x264.potroks.mkv
Формат : Matroska
Версия формата : Version 2
Размер файла : 2,18 Гбайт
Продолжительность : 1 ч. 42 м.
Общий поток : 3043 Кбит/сек
Название фильма : -=POTROKS=-
Дата кодирования : UTC 2012-08-14 17:38:48
Программа кодирования : mkvmerge v5.6.0 ('Kenya Kane') built on May 27 2012 16:44:04
Библиотека кодирования : libebml v1.2.3 + libmatroska v1.3.0

Видео
Идентификатор : 1
Формат : AVC
Формат/Информация : Advanced Video Codec
Профиль формата : High@L4.1
Параметр CABAC формата : Да
Параметр ReFrames формата : 9 кадров
Идентификатор кодека : V_MPEG4/ISO/AVC
Продолжительность : 1 ч. 42 м.
Битрейт : 2274 Кбит/сек
Ширина : 1056 пикселей
Высота : 440 пикселей
Соотношение сторон : 2,40:1
Режим частоты кадров : Переменный
Частота кадров : 23,976 кадра/сек
Цветовое пространство : YUV
Субдискретизация насыщенности : 4:2:0
Битовая глубина : 8 бит
Тип развёртки : Прогрессивная
Бит/(Пиксели*Кадры) : 0.204
Размер потока : 1,59 Гбайт (73%)
Заголовок : Mstitel'.2008.D.BDRip.x264.potroks
Библиотека кодирования : x264 core 116 r2019M 9cc407d
Настройки программы : cabac=1 / ref=10 / deblock=1:-3:-2 / analyse=0x3:0x133 / me=umh / subme=10 / psy=1 / psy_rd=1.00:0.00 / mixed_ref=1 / me_range=32 / chroma_me=1 / trellis=2 / 8x8dct=1 / cqm=0 / deadzone=21,11 / fast_pskip=0 / chroma_qp_offset=-2 / threads=8 / sliced_threads=0 / nr=0 / decimate=1 / interlaced=0 / bluray_compat=0 / constrained_intra=0 / bframes=11 / b_pyramid=1 / b_adapt=2 / b_bias=0 / direct=3 / weightb=1 / open_gop=0 / weightp=2 / keyint=240 / keyint_min=23 / scenecut=40 / intra_refresh=0 / rc_lookahead=100 / rc=2pass / mbtree=1 / bitrate=2274 / ratetol=1.0 / qcomp=0.70 / qpmin=10 / qpmax=51 / qpstep=4 / cplxblur=20.0 / qblur=0.5 / vbv_maxrate=20000 / vbv_bufsize=20000 / nal_hrd=none / ip_ratio=1.35 / aq=1:0.90
Язык : English
Default : Да
Forced : Нет

Аудио #1
Идентификатор : 2
Формат : AC-3
Формат/Информация : Audio Coding 3
Расширение режима : CM (complete main)
Параметр Endianness формата : Big
Идентификатор кодека : A_AC3
Продолжительность : 1 ч. 42 м.
Вид битрейта : Постоянный
Битрейт : 384 Кбит/сек
Каналы : 6 каналов
Расположение каналов : Front: L C R, Side: L R, LFE
Частота : 48,0 КГц
Битовая глубина : 16 бит
Метод сжатия : С потерями
Размер потока : 282 Мбайт (13%)
Язык : Russian
Default : Да
Forced : Да

Аудио #2
Идентификатор : 3
Формат : AC-3
Формат/Информация : Audio Coding 3
Расширение режима : CM (complete main)
Параметр Endianness формата : Big
Идентификатор кодека : A_AC3
Продолжительность : 1 ч. 42 м.
Вид битрейта : Постоянный
Битрейт : 384 Кбит/сек
Каналы : 6 каналов
Расположение каналов : Front: L C R, Side: L R, LFE
Частота : 48,0 КГц
Битовая глубина : 16 бит
Метод сжатия : С потерями
Размер потока : 282 Мбайт (13%)
Язык : English
Default : Нет
Forced : Нет

Текст #1
Идентификатор : 4
Формат : UTF-8
Идентификатор кодека : S_TEXT/UTF8
Идентификатор кодека/Информация : UTF-8 Plain Text
Язык : English
Default : Нет
Forced : Нет

Текст #2
Идентификатор : 5
Формат : UTF-8
Идентификатор кодека : S_TEXT/UTF8
Идентификатор кодека/Информация : UTF-8 Plain Text
Заголовок : SDH
Язык : Russian
Default : Нет
Forced : Нет

Текст #3
Идентификатор : 6
Формат : UTF-8
Идентификатор кодека : S_TEXT/UTF8
Идентификатор кодека/Информация : UTF-8 Plain Text
Язык : Russian
Default : Нет
Forced : Нет
piratbit.org



Скачать Мститель через торрент http://3.firepic.org/3/images/2012-08/14/3s946iqjwv7i.jpg Скачать фильм Мститель через торрент бесплантно в хорошем качестве Описание: Денни Кольт, надев маску, стал сражаться с преступным миром под именем Мститель. Решив сделать жизнь граждан своего родного ... 10 10 4
Info! Золотая раздача, скачанное не засчитывается.
Торрент: Зарегистрирован [2012-10-21 11:58] · скачан: 334 раз
Статус: √ проверено
Размер: 2.18 GB
Как cкачать? Как скачать Мститель через торрент | qTorrent

% Раздел Тема Автор DL S | L
Фильмы 2006-2008 [ 1.45 GB ] Мститель / The Spirit [2008 BDRip лицензия] evgen_411 Скачать
1 | 0

28-11-2019 20:33  

Отключить всю рекламу на сайте

    Дорогой пользователь! Огромная просьба, поблагодарите релизера, оцените раздачу и оставьте свои комментарий, если Вы скачали Мститель через торрент бесплатно! Внесите свою лепту в развитие PiratBit!
    Комментировать посты могут только пользователи прошедшие не сложную регистрацию
    Показать сообщения:    

    Мститель через торрент
    Скачать бесплатно Мститель
    Мститель скачать торрент
    Мститель смотреть онлайн
    Cкачать фильм Мститель бесплатно
    Мститель скачать торрент в хорошем качестве
    Мститель смотреть онлайн бесплатно в хорошем качестве


    Вы не можете начинать темы
    Вы не можете отвечать на сообщения
    Вы не можете редактировать свои сообщения
    Вы не можете удалять свои сообщения
    Вы не можете голосовать в опросах
    Вы не можете прикреплять файлы к сообщениям
    Вы можете скачивать файлы