Ссылка на приватное зеркало нашего сайта всего за 1$. Внимание количество ограничено!!!

2 сезон

iTunes

iTunes

1

iTunes

iTunes

iTunes

WEBRip

iTunes

30
pack

Вам бонус

ВАЖНО

!!Акция!!

Alien_RageХит недели

RePack

Horizon Zero Dawn

ИГРА 18+

pack

RePack

jed

!!Акция!!

Alien_Rage

RePack

fifa19

RePack

Assassins Creed: Odyssey

RePack

NEED FOR SPEED™ PAYBACK

4 сезон

9 сезон

Бесстыжие 9 сезон

Все сериалы

все сериалы на PB.wtf

RePack

FAR CRY 5
  

Три королевы Сиама / Puen yai jom salad (Нонзи Нимибутр.) [2008 г., приключения, фэнтези, история, HDRip, MVO, лицензия] piratbit.org

Три королевы Сиама через торрент piratbit.org

Размер: 1.44 GB | Добавлен: 7 лет 11 мес. назад | Торрент скачан:79 раз
Скачать  

23-10-2012 14:08 Три королевы Сиама Скачать торрент  

Три королевы Сиама / Puen yai jom salad

Год выпуска: 2008
Страна: Тайланд.
Жанр: приключения, фэнтези, история
Продолжительность: 01:54:20
Перевод: Профессиональный многоголосый

Режиссер: Нонзи Нимибутр.
Продюссер: Нонзи Нимибутр.

Бюджет: THB 150 000 000
Премьера в мире: 12.08.2008.

лицам до 17 лет обязательно присутствие взрослого
5.70 (567)
http://www.kinopoisk.ru/film/421642/

В ролях: Tika Peucelle
Либби Брайан
Сорапонг Чатри
Дэн Чупонг
Ананда Эверингем
Филип Херш
Винай Краибутр
Chartchai Ngamsan
Джакрит Паничпатикам
Сувинит Паньямават

Описание: 1600 год до нашей эры. Правление Королевы Хиджо Лангказуки переживало серьёзный внутренний конфликт. Принц мятежник Роэй, сговорившись с предводителем пиратов Черным Вороном решил поднять восстание чтобы свергнуть Хиджо с престола. Для войны с Королевой, пираты пытаются захватить голландское судно с новым орудием. Но их попытка заканчивается неудачей, корабль тонет. Тем временем, сирота по имени Пэр одарённый древним, редким даром — общением с морскими животными подымает востание против Черного Ворона, который на протяжении многих лет нападал на его деревню

Качество: HDRip
Формат: AVI
Видео кодек: XviD
Аудио кодек: AC3
Видео: MPEG-4 Visual, XVID, 1412 Кбит/сек, 720*400 пикс., 25,000 кадр/сек
Аудио#1: AC-3, 384 Кбит/сек, 6 каналов, 48,0 КГц





Формат : AVI
Формат/Информация : Audio Video Interleave
Размер файла : 1,44 Гбайт
Продолжительность : 1 ч. 54 м.
Общий поток : 1805 Кбит/сек
Программа кодирования : VirtualDubModRus 1.5.10.2 (build 2542/release)
Библиотека кодирования : VirtualDubMod build 2542/release

Видео
Идентификатор : 0
Формат : MPEG-4 Visual
Профиль формата : Advanced Simple@L5
Параметр BVOP формата : 1
Параметр QPel формата : Нет
Параметр GMC формата : Без точки перехода
Параметр матрицы формата : Default (MPEG)
Идентификатор кодека : XVID
Идентификатор кодека/Подсказка : XviD
Продолжительность : 1 ч. 54 м.
Битрейт : 1412 Кбит/сек
Ширина : 720 пикселей
Высота : 400 пикселей
Соотношение сторон : 16:9
Частота кадров : 25,000 кадров/сек
Цветовое пространство : YUV
Субдискретизация насыщенности : 4:2:0
Битовая глубина : 8 бит
Тип развёртки : Прогрессивная
Метод сжатия : С потерями
Бит/(Пиксели*Кадры) : 0.196
Размер потока : 1,13 Гбайт (78%)
Библиотека кодирования : XviD 1.2.1 (UTC 2008-12-04)

Аудио
Идентификатор : 1
Формат : AC-3
Формат/Информация : Audio Coding 3
Расширение режима : CM (complete main)
Параметр Endianness формата : Big
Идентификатор кодека : 2000
Продолжительность : 1 ч. 54 м.
Вид битрейта : Постоянный
Битрейт : 384 Кбит/сек
Каналы : 6 каналов
Расположение каналов : Front: L C R, Side: L R, LFE
Частота : 48,0 КГц
Битовая глубина : 16 бит
Метод сжатия : С потерями
Задержка видео : 1 с. 490 мс.
Размер потока : 314 Мбайт (21%)
Выравнивание : Разделение по промежуткам
Продолжительность промежутка : 40 мс. (1,00 видеокадр)
Время предзагрузки промежутка : 500 мс.

piratbit.org



Скачать Три королевы Сиама через торрент http://pic.kartinco.top/images/1/xi6s873nur.jpg Скачать фильм Три королевы Сиама через торрент бесплантно в хорошем качестве Описание: 1600 год до нашей эры. Правление Королевы Хиджо Лангказуки переживало серьёзный внутренний конфликт. Принц мятежник Роэй, ... 5 10 1
Info! Золотая раздача, скачанное не засчитывается.
Торрент: Зарегистрирован [2012-10-23 14:08] · скачан: 79 раз
Статус: √ проверено
Размер: 1.44 GB
Как cкачать? Как скачать Три королевы Сиама через торрент | qTorrent

28-11-2019 20:33  

Отключить всю рекламу на сайте

    Дорогой пользователь! Огромная просьба, поблагодарите релизера, оцените раздачу и оставьте свои комментарий, если Вы скачали Три королевы Сиама через торрент бесплатно! Внесите свою лепту в развитие PiratBit!
    Комментировать посты могут только пользователи прошедшие не сложную регистрацию
    Показать сообщения:    

    Три королевы Сиама через торрент
    Скачать бесплатно Три королевы Сиама
    Три королевы Сиама скачать торрент
    Три королевы Сиама смотреть онлайн
    Cкачать фильм Три королевы Сиама бесплатно
    Три королевы Сиама скачать торрент в хорошем качестве
    Три королевы Сиама смотреть онлайн бесплатно в хорошем качестве


    Вы не можете начинать темы
    Вы не можете отвечать на сообщения
    Вы не можете редактировать свои сообщения
    Вы не можете удалять свои сообщения
    Вы не можете голосовать в опросах
    Вы не можете прикреплять файлы к сообщениям
    Вы можете скачивать файлы