1 сезон

1 сезон

iTunes

1

iTunes

Кинопоиск HD

iTunes

13

1 сезон

RePack

30

Deluxe

ВАЖНО

ИГРА 18+

pack

RePack

MK11
pack

Легкие деньги

RePack

jed

RePack

fifa19

RePack

RDR2

RePack

NEED FOR SPEED™ PAYBACK

4 сезон

9 сезон

Бесстыжие 9 сезон

Все сериалы

все сериалы на PB.wtf

RePack

FAR CRY 5
  
Magnet ссылка

"Летающие тайцы" / Khon fai bin (Chalerm Wongpim.) [2005 г., боевик, комедия, DVDRip, MVO] piratbit.org

"Летающие тайцы" через торрент piratbit.org

Размер: 1.47 GB | Добавлен: 8 лет 6 мес. назад | Торрент скачан:30 раз
Скачать  

23-10-2012 16:45 "Летающие тайцы" Скачать торрент  

"Летающие тайцы" / Khon fai bin

Год выпуска: 2005
Страна: Таиланд
Жанр: боевик, комедия
Продолжительность: 01:43:00
Перевод: Любительский многоголосый

Режиссер: Chalerm Wongpim.
Продюссер: Прачья Пинкаю, Сюканая Вонгстапат.
Сценарий: Chalerm Wongpim.

Премьера в мире: 21.12.2005.

5.00 (1 120)
http://www.kinopoisk.ru/film/317799/

В ролях: Дэн Чупонг, Лео Патт, Панна Риттикрай, Kanyapak Suworakood, Ампон Раттанавонг, Wichai Prommajan, Amporn Pankratok, Дерек Вэйд.

Описание: Простой тайский парень мстит за смерть своих родителей. Он знает, что их убил пастух с татуировкой. Теперь всем татуированным - не жить

Качество: DVDRip
Формат: AVI
Видео кодек: XviD
Аудио кодек: AC3
Видео: MPEG-4 Visual, XVID, 1199Кбит/сек, 704*400 пикс., 29,970 кадр/сек
Аудио#1: AC-3, 448 Кбит/сек, 6 каналов, 48,0 КГц (РУС)
Аудио#2: AC-3, 384 Кбит/сек, 6 каналов, 48,0 КГц (АНГ)





ормат : AVI
Формат/Информация : Audio Video Interleave
Размер файла : 1,47 Гбайт
Продолжительность : 1 ч. 43 м.
Общий поток : 2049 Кбит/сек
Название фильма : Dynamite Warrior
Режиссёр : Animedia.tv
Дата записи : 10.03.2010
Программа кодирования : VirtualDubMod 1.5.10.2 (build 2540/release)
Библиотека кодирования : VirtualDubMod build 2540/release

Видео
Идентификатор : 0
Формат : MPEG-4 Visual
Профиль формата : Advanced Simple@L5
Параметр BVOP формата : 2
Параметр QPel формата : Нет
Параметр GMC формата : Без точки перехода
Параметр матрицы формата : Default (H.263)
Идентификатор кодека : XVID
Идентификатор кодека/Подсказка : XviD
Продолжительность : 1 ч. 43 м.
Битрейт : 1199 Кбит/сек
Ширина : 704 пикселя
Высота : 400 пикселей
Соотношение сторон : 16:9
Частота кадров : 29,970 кадров/сек
Цветовое пространство : YUV
Субдискретизация насыщенности : 4:2:0
Битовая глубина : 8 бит
Тип развёртки : Прогрессивная
Метод сжатия : С потерями
Бит/(Пиксели*Кадры) : 0.142
Размер потока : 883 Мбайт (59%)
Библиотека кодирования : XviD 1.2.1 (UTC 2008-12-04)

Аудио #1
Идентификатор : 1
Формат : AC-3
Формат/Информация : Audio Coding 3
Расширение режима : CM (complete main)
Параметр Endianness формата : Big
Идентификатор кодека : 2000
Продолжительность : 1 ч. 43 м.
Вид битрейта : Постоянный
Битрейт : 448 Кбит/сек
Каналы : 6 каналов
Расположение каналов : Front: L C R, Side: L R, LFE
Частота : 48,0 КГц
Битовая глубина : 16 бит
Метод сжатия : С потерями
Задержка видео : 992 мс.
Размер потока : 330 Мбайт (22%)
Выравнивание : Разделение по промежуткам
Продолжительность промежутка : 33 мс. (1,00 видеокадр)
Время предзагрузки промежутка : 500 мс.
Заголовок : Dynamite Warrior: RU 5.1

Аудио #2
Идентификатор : 2
Формат : AC-3
Формат/Информация : Audio Coding 3
Расширение режима : CM (complete main)
Параметр Endianness формата : Big
Идентификатор кодека : 2000
Продолжительность : 1 ч. 43 м.
Вид битрейта : Постоянный
Битрейт : 384 Кбит/сек
Каналы : 6 каналов
Расположение каналов : Front: L C R, Side: L R, LFE
Частота : 48,0 КГц
Битовая глубина : 16 бит
Метод сжатия : С потерями
Задержка видео : 992 мс.
Размер потока : 283 Мбайт (19%)
Выравнивание : Разделение по промежуткам
Продолжительность промежутка : 33 мс. (1,00 видеокадр)
Время предзагрузки промежутка : 500 мс.
Заголовок : Dynamite Warrior: Thai 5.1

piratbit.org



Скачать "Летающие тайцы" через торрент https://pic1.kartinco.top/images/111/sxy4hkojeg.jpg Скачать фильм "Летающие тайцы" через торрент бесплантно в хорошем качестве Описание: Простой тайский парень мстит за смерть своих родителей. Он знает, что их убил пастух с татуировкой. Теперь всем татуированным - ... 9 10 1
Info! Золотая раздача, скачанное не засчитывается.
Торрент: Зарегистрирован [2012-10-23 16:45] · скачан: 30 раз
Статус: √ проверено
Размер: 1.47 GB
Как cкачать? Как скачать "Летающие тайцы" через торрент | UTorrent

28-11-2019 20:33  

Отключить всю рекламу на сайте

    Дорогой пользователь! Огромная просьба, поблагодарите релизера, оцените раздачу и оставьте свои комментарий, если Вы скачали "Летающие тайцы" через торрент бесплатно! Внесите свою лепту в развитие PiratBit!
    Комментировать посты могут только пользователи прошедшие не сложную регистрацию
    Показать сообщения:    

    "Летающие тайцы" через торрент
    Скачать бесплатно "Летающие тайцы"
    "Летающие тайцы" скачать торрент
    "Летающие тайцы" смотреть онлайн
    Cкачать фильм "Летающие тайцы" бесплатно
    "Летающие тайцы" скачать торрент в хорошем качестве
    "Летающие тайцы" смотреть онлайн бесплатно в хорошем качестве


    Вы не можете начинать темы
    Вы не можете отвечать на сообщения
    Вы не можете редактировать свои сообщения
    Вы не можете удалять свои сообщения
    Вы не можете голосовать в опросах
    Вы не можете прикреплять файлы к сообщениям
    Вы можете скачивать файлы