Ссылка на приватное зеркало нашего сайта всего за 1$. Внимание количество ограничено!!!

2 сезон

iTunes

iTunes

1

iTunes

iTunes

iTunes

WEBRip

iTunes

30
pack

Забери бонус

ВАЖНО

!!Акция!!

Alien_RageХит недели

RePack

RESIDENT EVIL 3: NEMESIS REMAKE

ИГРА 18+

pack

RePack

jed

!!Акция!!

Alien_Rage

RePack

fifa19

RePack

Assassins Creed: Odyssey

RePack

NEED FOR SPEED™ PAYBACK

4 сезон

9 сезон

Бесстыжие 9 сезон

Все сериалы

все сериалы на PB.wtf

RePack

FAR CRY 5
  

"Сто двадцать" / 120 (Ожан Эрен, Мурат Сараджоглу) [2008 г., Драма, Военный, Исторический, DVDRip, MVO, лицензия] piratbit.org

"Сто двадцать" через торрент piratbit.org

Размер: 1.36 GB | Добавлен: 7 лет 11 мес. назад | Торрент скачан:21 раз
Скачать  

31-10-2012 14:27 "Сто двадцать" Скачать торрент  

Сто двадцать / 120

Год выпуска: 2008
Страна: ТУРЦИЯ
Жанр: Драма, Военный, Исторический
Продолжительность: 01:46:10
Перевод: Профессиональный многоголосый, Лицензия

Режиссер: Ожан Эрен, Мурат Сараджоглу
Продюссер: Ожан Эрен
Сценарий: Ожан Эрен

Бюджет: $3 000 000
Премьера в мире: 15 февраля 2008

7.00 (2 280)
http://www.kinopoisk.ru/film/411002/

В ролях: Озге Озберк, Кансел Эльсин, Бурак Серген, Ясар Абравая, Мелих Аталай, Кемал Озан Селик, Озан Сем Дур, Дениз Гунгорен, Мелза Бурсу Инсэ, Демир Карахан

Описание: 120 детей от 12 до 17 лет, добровольно отправляются в сложное путешествие. Им приходится тащить амунницию на своих спинах через глубокие снега и горы, чтобы помочь солдатам Первой Мировой войны.

Качество: DVDRip
Формат: AVI
Видео кодек: XviD
Аудио кодек: AC3
Видео: MPEG-4 Visual, XVID, 1383 Кбит/сек, 656x272 пикселя, 25,000 кадр/сек
Аудио#1: AC-3, 448 Кбит/сек, 6 каналов, 48,0 КГц





Формат : AVI
Формат/Информация : Audio Video Interleave
Размер файла : 1,36 Гбайт
Продолжительность : 1 ч. 46 м.
Общий поток : 1840 Кбит/сек
Программа кодирования : VirtualDubMod 1.5.10.2 (build 2542/release)
Библиотека кодирования : VirtualDubMod build 2542/release

Видео
Идентификатор : 0
Формат : MPEG-4 Visual
Профиль формата : Advanced Simple@L5
Параметр BVOP формата : 2
Параметр QPel формата : Нет
Параметр GMC формата : Без точки перехода
Параметр матрицы формата : Default (H.263)
Идентификатор кодека : XVID
Идентификатор кодека/Подсказка : XviD
Продолжительность : 1 ч. 46 м.
Битрейт : 1383 Кбит/сек
Ширина : 656 пикселей
Высота : 272 пикселя
Соотношение сторон : 2,40:1
Частота кадров : 25,000 кадров/сек
Цветовое пространство : YUV
Субдискретизация насыщенности : 4:2:0
Битовая глубина : 8 бит
Тип развёртки : Прогрессивная
Метод сжатия : С потерями
Бит/(Пиксели*Кадры) : 0.310
Размер потока : 1,03 Гбайт (75%)
Библиотека кодирования : XviD 1.1.2 (UTC 2006-11-01)

Аудио
Идентификатор : 1
Формат : AC-3
Формат/Информация : Audio Coding 3
Расширение режима : CM (complete main)
Параметр Endianness формата : Big
Идентификатор кодека : 2000
Продолжительность : 1 ч. 46 м.
Вид битрейта : Постоянный
Битрейт : 448 Кбит/сек
Каналы : 6 каналов
Расположение каналов : Front: L C R, Side: L R, LFE
Частота : 48,0 КГц
Битовая глубина : 16 бит
Метод сжатия : С потерями
Размер потока : 340 Мбайт (24%)
Выравнивание : Разделение по промежуткам
Продолжительность промежутка : 40 мс. (1,00 видеокадр)
Время предзагрузки промежутка : 500 мс.

piratbit.org



Скачать "Сто двадцать" через торрент http://pic.kartinco.top/images/1/mm6j3rhpej.jpg Скачать фильм "Сто двадцать" через торрент бесплантно в хорошем качестве Описание: 120 детей от 12 до 17 лет, добровольно отправляются в сложное путешествие. Им приходится тащить амунницию на своих спинах через ... 5 10 1
Info! Золотая раздача, скачанное не засчитывается.
Торрент: Зарегистрирован [2012-10-31 14:27] · скачан: 21 раз
Статус: √ проверено
Размер: 1.36 GB
Как cкачать? Как скачать "Сто двадцать" через торрент | qTorrent

28-11-2019 20:33  

Отключить всю рекламу на сайте

    Дорогой пользователь! Огромная просьба, поблагодарите релизера, оцените раздачу и оставьте свои комментарий, если Вы скачали "Сто двадцать" через торрент бесплатно! Внесите свою лепту в развитие PiratBit!
    Комментировать посты могут только пользователи прошедшие не сложную регистрацию
    Показать сообщения:    

    "Сто двадцать" через торрент
    Скачать бесплатно "Сто двадцать"
    "Сто двадцать" скачать торрент
    "Сто двадцать" смотреть онлайн
    Cкачать фильм "Сто двадцать" бесплатно
    "Сто двадцать" скачать торрент в хорошем качестве
    "Сто двадцать" смотреть онлайн бесплатно в хорошем качестве


    Вы не можете начинать темы
    Вы не можете отвечать на сообщения
    Вы не можете редактировать свои сообщения
    Вы не можете удалять свои сообщения
    Вы не можете голосовать в опросах
    Вы не можете прикреплять файлы к сообщениям
    Вы можете скачивать файлы