Ссылка на приватное зеркало нашего сайта всего за 1$. Внимание количество ограничено!!!

2 сезон

iTunes

iTunes

1

iTunes

iTunes

iTunes

WEBRip

iTunes

30
pack

Вам бонус

ВАЖНО

!!Акция!!

Alien_RageХит недели

RePack

Horizon Zero Dawn

ИГРА 18+

pack

RePack

jed

!!Акция!!

Alien_Rage

RePack

fifa19

RePack

Assassins Creed: Odyssey

RePack

NEED FOR SPEED™ PAYBACK

4 сезон

9 сезон

Бесстыжие 9 сезон

Все сериалы

все сериалы на PB.wtf

RePack

FAR CRY 5
  

Корпоративка / Severance (Кристофер Смит) [2006 г., ужасы, триллер, комедия, HDRip, MVO, лицензия] piratbit.org

Корпоративка через торрент piratbit.org

Размер: 1.46 GB | Добавлен: 7 лет 10 мес. назад | Торрент скачан:93 раза
Скачать  

09-11-2012 06:47 Корпоративка Скачать торрент  

К о р п о р а т и в к а / S e v e r a n c e Год выпуска: 2006
Страна: Великобритания
Жанр: ужасы, триллер, комедия
Продолжительность: 96 мин. / 01:36
Перевод: Профессиональный многоголосый, Лицензия
Режиссер: Кристофер Смит
Продюссер: Джейсон Ньюмарк, Александра Арланго, Коллин Вудкок
Сценарий: Джеймс Моран, Кристофер Смит
Бюджет: £5 000 000
Премьера в мире: 19 мая 2006
Мировой рейтинг IMDB 6.60 (23 580)
Тоби Стивенс, Клоди Блейкли, Энди Найман, Бабу Сизей, Тим МакИннерни, Лора Харрис, Дэнни Дайер, Дэвид Гиллиам, Жюли Драйко, Юдит Виктор 8 члeнов оружейной компании отправились в Вeнгрию для поддeржания комaнднoгo духa. Никто из них не предполагал, что байки о кровожадных военных преступниках, засевших в лесу, являются правдой. Качество: HDRip
Формат: AVI
Видео кодек: XviD
Аудио кодек: AC3
Видео: XviD; 720x400 (16:9); 1792 Kbps; 23,976 fps; 0,260 bpp
Аудио#1: Dolby AC3 48000Hz 6ch 384kbps
Format : AVI
Format/Info : Audio Video Interleave
File size : 1.46 GiB
Duration : 1h 35mn
Overall bit rate : 2 186 Kbps
Writing application : VirtualDubMod 1.5.10.2 (build 2540/release)
Writing library : VirtualDubMod build 2540/release

Video
ID : 0
Format : MPEG-4 Visual
Format profile : Advanced Simple@L5
Format settings, BVOP : 1
Format settings, QPel : No
Format settings, GMC : No warppoints
Format settings, Matrix : Default (MPEG)
Codec ID : XVID
Codec ID/Hint : XviD
Duration : 1h 35mn
Bit rate : 1 793 Kbps
Width : 720 pixels
Height : 400 pixels
Display aspect ratio : 16:9
Frame rate : 23.976 fps
Color space : YUV
Chroma subsampling : 4:2:0
Bit depth : 8 bits
Scan type : Progressive
Compression mode : Lossy
Bits/(Pixel*Frame) : 0.260
Stream size : 1.20 GiB (82%)
Writing library : XviD 1.2.1 (UTC 2008-12-04)

Audio
ID : 1
Format : AC-3
Format/Info : Audio Coding 3
Mode extension : CM (complete main)
Format settings, Endianness : Big
Codec ID : 2000
Duration : 1h 35mn
Bit rate mode : Constant
Bit rate : 384 Kbps
Channel(s) : 6 channels
Channel positions : Front: L C R, Side: L R, LFE
Sampling rate : 48.0 KHz
Bit depth : 16 bits
Compression mode : Lossy
Stream size : 263 MiB (18%)
Alignment : Split accross interleaves
Interleave, duration : 42 ms (1.00 video frame)
Interleave, preload duration : 500 ms
piratbit.org



Скачать Корпоративка через торрент http://pic.kartinco.top/images/1/3lecid59w9.jpg Скачать фильм Корпоративка через торрент бесплантно в хорошем качестве Год выпуска: 2006Страна: ВеликобританияЖанр: ужасы, триллер, комедияПродолжительность: 96 мин. / 01:36Перевод: Профессиональный ... 5 10 1
Info! Золотая раздача, скачанное не засчитывается.
Торрент: Зарегистрирован [2012-11-09 06:47] · скачан: 93 раз
Статус: √ проверено
Размер: 1.46 GB
Как cкачать? Как скачать Корпоративка через торрент | qTorrent

% Раздел Тема Автор DL S | L
Фильмы 2006-2008 [ 1.45 GB ] Корпоративка / Изоляция / Severance [2006 . HDRip + Оригинал] bogyn Скачать
1 | 0
Фильмы 2006-2008 [ 2.18 GB ] Корпоративка / Изоляция / Severance [2006 BDRip] -=BIGBOSS=- Скачать
1 | 0


Последний раз редактировалось: koolvasa (2012-11-09 07:16), всего редактировалось 1 раз

28-11-2019 20:33  

Отключить всю рекламу на сайте

09-11-2012 06:56 Корпоративка Скачать торрент  

koolvasa-исправляем:
Размер обложки не должен превышать 700*700 пикселей (небольшие отклонения от нормы возможны на усмотрение модератора).
Размер обложки должен быть не меньше 200*200 пикселей.
piratbit.org



09-11-2012 07:39 Корпоративка Скачать торрент  

смотрел на днях по тв не стоит тратить свое времяpiratbit.org



09-11-2012 11:07 Корпоративка Скачать торрент  

Вся соль этого фильма в грамотном переводе. Не помню чей перевод лучший, но есть один который придаёт этому фильму необходимый "шарм", коим не сомневаюсь обладает оригинал, если смотреть на родном языке. И дело тут даже не в матах, а в "правильности" перевода.

Корпоративка, Собачья конура (Попали) - вот в принципе два лучших на мой взгляд комедийных ужастика из британского кинематографа.piratbit.org



    Дорогой пользователь! Огромная просьба, поблагодарите релизера, оцените раздачу и оставьте свои комментарий, если Вы скачали Корпоративка через торрент бесплатно! Внесите свою лепту в развитие PiratBit!
    Комментировать посты могут только пользователи прошедшие не сложную регистрацию
    Показать сообщения:    

    Корпоративка через торрент
    Скачать бесплатно Корпоративка
    Корпоративка скачать торрент
    Корпоративка смотреть онлайн
    Cкачать фильм Корпоративка бесплатно
    Корпоративка скачать торрент в хорошем качестве
    Корпоративка смотреть онлайн бесплатно в хорошем качестве


    Вы не можете начинать темы
    Вы не можете отвечать на сообщения
    Вы не можете редактировать свои сообщения
    Вы не можете удалять свои сообщения
    Вы не можете голосовать в опросах
    Вы не можете прикреплять файлы к сообщениям
    Вы можете скачивать файлы