2 сезон

iTunes

MVO

1

2 сезон

iTunes

iTunes

1 сезон

RePack

30

Новинка

ВАЖНО

ИГРА 18+

pack

RePack

MK11
pack

Легкие деньги

RePack

jed

RePack

fifa19

RePack

RDR2

RePack

NEED FOR SPEED™ PAYBACK

4 сезон

9 сезон

Бесстыжие 9 сезон

Все сериалы

все сериалы на PB.wtf

RePack

FAR CRY 5

Anonymous, доброй ночи, мы не успеваем собрать деньги на оплату серверов за декабрь и январь, помогите нам пожалуйста в это трудное время. В качестве благодарности мы отключим Вам всю рекламу на сайте (укажите свой ник в строку Ваше имя)!

×
  
Magnet ссылка

Последний герой (Виктор Татарский) [2012 г., драма, детектив, DVDRip, Оригинал] piratbit.org

Последний герой через торрент piratbit.org

Размер: 1.37 GB | Добавлен: 8 лет 2 мес. назад | Торрент скачан:567 раз
Скачать  

09-11-2012 11:30 Последний герой Скачать торрент  

Последний герой

Год выпуска: 2012
Страна: Россия / Триикс Медиа, Телекомпания НТВ
Жанр: драма, детектив
Продолжительность: 01:28:50
Перевод: Оригинал
Тип релиза: Лицензия

Режиссер: Виктор Татарский
Сценарий: Андрей Тумаркин



В ролях: Михаил Полосухин, Людмила Курепова, Игорь Качаев, Петр Семак, Денис Синявский, Геннадий Смирнов, Маргарита Бычкова, Елена Мартыненко, Евгений Сиротин, Ольга Кожевникова.

Описание: Горячая точка, где-то за пределами России. Во время боя один из миротворцев — Андрей — спасает жизнь другому миротворцу — Виктору.
Прошло порядка 20 лет. Андрей стал врачом, живет в Питере. Однажды Андрея избивают и он попадает в больницу. Его жена Катя написала заявление в милицию. Но та явно не торопится искать преступников. Андрей умирает, а Кате, которая пытается добиться справедливости, начинают угрожать. Обещают убить ее и сына. Неожиданно на пороге ее дома появляется Виктор, тот самый солдат, которого спас Андрей…

Качество: DVDRip
Формат: AVI
Видео кодек: XviD
Аудио кодек: AC3
Видео: 720x384 (1.88:1), 25 fps, XviD build 50 ~1748 kbps avg, 0.25 bit/pixel
Аудио#1: 48 kHz, AC3 Dolby Digital, 3/2 (L,C,R,l,r) + LFE ch, ~448 kbps
Релиз от:
General
Complete name : H:Poslednij.geroj.2012.O.DVDRip.IRONCLUB.avi
Format : AVI
Format/Info : Audio Video Interleave
File size : 1.37 GiB
Duration : 1h 28mn
Overall bit rate : 2 207 Kbps
Movie name : Poslednij.geroj.2012.O.DVDRip.IRONCLUB
Director : IRONCLUB
Genre : Drama | Detective
Writing application : VirtualDubMod 1.5.10.2 (build 2540/release)
Original source form/Name : Movie Trailer
Copyright :

Video
ID : 0
Format : MPEG-4 Visual
Format profile : Advanced Simple@L5
Format settings, BVOP : 2
Format settings, QPel : No
Format settings, GMC : No warppoints
Format settings, Matrix : Custom
Codec ID : XVID
Codec ID/Hint : XviD
Duration : 1h 28mn
Bit rate : 1 806 Kbps
Width : 720 pixels
Height : 384 pixels
Display aspect ratio : 1.875
Frame rate : 25.000 fps
Color space : YUV
Chroma subsampling : 4:2:0
Bit depth : 8 bits
Scan type : Progressive
Compression mode : Lossy
Bits/(Pixel*Frame) : 0.261
Stream size : 583 MiB (42%)
Writing library : XviD 1.2.1 (UTC 2008-12-04)

Audio
ID : 1
Format : AC-3
Format/Info : Audio Coding 3
Mode extension : CM (complete main)
Codec ID : 2000
Duration : 1h 28mn
Bit rate mode : Constant
Bit rate : 448 Kbps
Channel(s) : 6 channels
Channel positions : Front: L C R, Side: L R, LFE
Sampling rate : 48.0 KHz
Bit depth : 16 bits
Compression mode : Lossy
Delay relative to video : 20ms
Stream size : 145 MiB (10%)
Alignment : Split accross interleaves
Interleave, duration : 40 ms (1.00 video frame)
Interleave, preload duration : 500 ms

piratbit.org



Скачать Последний герой через торрент https://pic.kartinco.top/images/1/jil2hfyd6t.png Скачать фильм Последний герой через торрент бесплантно в хорошем качестве Описание: Горячая точка, где-то за пределами России. Во время боя один из миротворцев — Андрей — спасает жизнь другому миротворцу — ... 10 10 2
Info! Золотая раздача, скачанное не засчитывается.
Торрент: Зарегистрирован [2012-11-09 11:30] · скачан: 567 раз
Статус: √ проверено
Размер: 1.37 GB
Как cкачать? Как скачать Последний герой через торрент | UTorrent

% Раздел Тема Автор DL S | L
T Релизы по Парсеру [Игры, Сериалы и Фильмы и другое...] [ 18.64 GB ] Последний герой. Зрители против Звезд / Сезон: 8 / Серии: 1-13 из 13 + Фильм о проекте [2020 реалити-шоу WEB-DL 720p] killermax2013 Скачать
1 | 0
T Релизы по Парсеру [Игры, Сериалы и Фильмы и другое...] [ 876 MB ] Последний герой. Актёры против экстрасенсов. Финал [25.05.2019 реалити-шоу IPTVRip] killermax2013 Скачать
1 | 0
T Релизы по Парсеру [Игры, Сериалы и Фильмы и другое...] [ 16.69 GB ] Последний герой. Актёры против экстрасенсов / Сезон: 7 / Серии: 1-12 из 14 [2019 реалити-шоу WEB-DL 720p] killermax2013 Скачать
1 | 0
T Релизы по Парсеру [Игры, Сериалы и Фильмы и другое...] [ 1.26 GB ] Последний герой. Актёры против экстрасенсов 10-ая серия [04.05.2019 реалити-шоу WEB-DL 720p] killermax2013 Скачать
1 | 0
T Релизы по Парсеру [Игры, Сериалы и Фильмы и другое...] [ 47.46 GB ] Последний герой: Актёры против экстрасенсов / Сезон: 7 / Серии: 1-10 из 14 [2019 реалити-шоу HDTV 1080p] [ТВ-3] killermax2013 Скачать
1 | 0
Релизы по Парсеру [Игры, Сериалы и Фильмы и другое...] [ 769 MB ] Последний герой. Актёры против экстрасенсов 6 выпуск [06.04.2019 реалити-шоу IPTVRip] killermax2013 Скачать
1 | 0
Наши сериалы [ 2.31 GB ] Снайпер: Герой сопротивления / Последний выстрел / Серии: 1-4 из 4 [2015 Военный HDTVRip] bober100 Скачать
1 | 0

28-11-2019 20:33  

Отключить всю рекламу на сайте

    Дорогой пользователь! Огромная просьба, поблагодарите релизера, оцените раздачу и оставьте свои комментарий, если Вы скачали Последний герой через торрент бесплатно! Внесите свою лепту в развитие PiratBit!
    Комментировать посты могут только пользователи прошедшие не сложную регистрацию
    Показать сообщения:    

    Последний герой через торрент
    Скачать бесплатно Последний герой
    Последний герой скачать торрент
    Последний герой смотреть онлайн
    Cкачать фильм Последний герой бесплатно
    Последний герой скачать торрент в хорошем качестве
    Последний герой смотреть онлайн бесплатно в хорошем качестве


    Вы не можете начинать темы
    Вы не можете отвечать на сообщения
    Вы не можете редактировать свои сообщения
    Вы не можете удалять свои сообщения
    Вы не можете голосовать в опросах
    Вы не можете прикреплять файлы к сообщениям
    Вы можете скачивать файлы