2 сезон

iTunes

MVO

1

2 сезон

iTunes

iTunes

1 сезон

RePack

30

Ultimate

ВАЖНО

ИГРА 18+

pack

RePack

MK11
pack

Легкие деньги

RePack

jed

RePack

fifa19

RePack

RDR2

RePack

NEED FOR SPEED™ PAYBACK

4 сезон

9 сезон

Бесстыжие 9 сезон

Все сериалы

все сериалы на PB.wtf

RePack

FAR CRY 5

Anonymous, добрый вечер, мы не успеваем собрать деньги на оплату серверов за декабрь и январь, помогите нам пожалуйста в это трудное время. В качестве благодарности мы отключим Вам всю рекламу на сайте (укажите свой ник в строку Ваше имя)!

×
  
Magnet ссылка

ДухLess (Роман Прыгунов) [2012 г., драма, боевик, BDRip - AVC] piratbit.org

ДухLess через торрент piratbit.org

Раздают: 1 [ 0 KB/s ]
Размер: 1.45 GB | Добавлен: 8 лет 2 мес. назад | Торрент скачан:851 раз
Скачать  

09-11-2012 17:42 ДухLess Скачать торрент  

ДухLess
Год выпуска: 2012
Страна: Россия, Арт Пикчерс Студия, Кинослово
Жанр: драма, боевик
Продолжительность: 01:41:11
Перевод: Не требуется
Тип релиза: Лицензия

Режиссер: Роман Прыгунов

В ролях: Данила Козловский, Артем Михалков, Михаил Ефремов, Мария Андреева, Артур Смольянинов, Мария Кожевникова, Сергей Белоголовцев, Игорь Войнаровский, Михаил Люлинецкий, Михаил Мухтасипов

Описание: Главный герой фильма — 29-летний топ-менеджер крупного международного банка по имени Макс. Он уверен, что жизнь удалась, ведь у него есть то, о чём многие не могут даже и мечтать: дорогая машина, пентхаус и вечеринки. Свою жизнь Максим тратит на зарабатывание денег, а деньги — на ночные клубы, шикарных девушек, кокаин и прочие атрибуты, так называемой, гламурной жизни. Но в какой-то момент к герою приходит осознание того, что с его жизнью что-то не так. И его мир начинает рушиться, подобно карточному домику. В картине говорится о переоценке себя и жизни вокруг, о преодолении внутреннего кризиса



Качество: BDRip - AVC
Формат: MKV
Видео кодек: AVC
Аудио кодек: AC3
Видео: MPEG-4 AVC, 1517 кбит/с, 1024x432, 24.000 кадр/сек [Рип с Blu-Ray (1080p)]
Аудио#1: АС3, 6 ch, 448 Кбит/с 48.0 KHz
Релиз от:


General
Unique ID                                : 209923938589799583653563801052235285298 (0x9DEDE143937E958F93C84729A1EDC332)
Complete name                            : D:Мои раздачиDuxless.2012.O.BDRip.AVC.by Odessit.mkv
Format                                   : Matroska
Format version                           : Version 2
File size                                : 1.45 GiB
Duration                                 : 1h 45mn
Overall bit rate                         : 1 967 Kbps
Movie name                               : Odessit
Encoded date                             : UTC 2012-11-09 16:53:25
Writing application                      : mkvmerge v5.8.0 ('No Sleep / Pillow') built on Sep  2 2012 15:37:04
Writing library                          : libebml v1.2.3 + libmatroska v1.3.0

Video
ID                                       : 1
Format                                   : AVC
Format/Info                              : Advanced Video Codec
Format profile                           : High@L4.1
Format settings, CABAC                   : Yes
Format settings, ReFrames                : 12 frames
Codec ID                                 : V_MPEG4/ISO/AVC
Duration                                 : 1h 45mn
Bit rate                                 : 1 517 Kbps
Width                                    : 1 024 pixels
Height                                   : 432 pixels
Display aspect ratio                     : 2.40:1
Frame rate mode                          : Constant
Frame rate                               : 24.000 fps
Color space                              : YUV
Chroma subsampling                       : 4:2:0
Bit depth                                : 8 bits
Scan type                                : Progressive
Bits/(Pixel*Frame)                       : 0.143
Stream size                              : 1.09 GiB (75%)
Writing library                          : x264 core 125 r2200 999b753
Encoding settings                        : cabac=1 / ref=12 / deblock=1:-3:-3 / analyse=0x3:0x113 / me=umh / subme=10 / psy=1 / psy_rd=1.00:0.00 / mixed_ref=1 / me_range=16 / chroma_me=1 / trellis=2 / 8x8dct=1 / cqm=0 / deadzone=21,11 / fast_pskip=0 / chroma_qp_offset=-2 / threads=3 / lookahead_threads=1 / sliced_threads=0 / nr=0 / decimate=1 / interlaced=0 / bluray_compat=0 / constrained_intra=0 / bframes=6 / b_pyramid=2 / b_adapt=2 / b_bias=0 / direct=1 / weightb=1 / open_gop=0 / weightp=2 / keyint=240 / keyint_min=24 / scenecut=40 / intra_refresh=0 / rc_lookahead=40 / rc=2pass / mbtree=1 / bitrate=1517 / ratetol=1.0 / qcomp=0.60 / qpmin=0 / qpmax=69 / qpstep=4 / cplxblur=20.0 / qblur=0.5 / ip_ratio=1.40 / aq=1:1.00
Language                                 : English
Default                                  : Yes
Forced                                   : No

Audio
ID                                       : 2
Format                                   : AC-3
Format/Info                              : Audio Coding 3
Mode extension                           : CM (complete main)
Format settings, Endianness              : Big
Codec ID                                 : A_AC3
Duration                                 : 1h 45mn
Bit rate mode                            : Constant
Bit rate                                 : 448 Kbps
Channel(s)                               : 6 channels
Channel positions                        : Front: L C R, Side: L R, LFE
Sampling rate                            : 48.0 KHz
Bit depth                                : 16 bits
Compression mode                         : Lossy
Stream size                              : 338 MiB (23%)
Default                                  : Yes
Forced                                   : No

piratbit.org



Скачать ДухLess через торрент http://s003.radikal.ru/i204/1211/7b/f89f256e1757.jpg Скачать фильм ДухLess через торрент бесплантно в хорошем качестве Описание: Главный герой фильма — 29-летний топ-менеджер крупного международного банка по имени Макс. Он уверен, что жизнь удалась, ведь у ... 10 10 14
Info! Золотая раздача, скачанное не засчитывается.
Торрент: Зарегистрирован [2012-11-09 17:42] · скачан: 851 раз
Статус: √ проверено
Размер: 1.45 GB
Как cкачать? Как скачать ДухLess через торрент | UTorrent

% Раздел Тема Автор DL S | L
Наши фильмы (HD, WEB-DL 720p, 1080p) [ 4.37 GB ] ДухLess 2 [2015 BDRip HEVC 1080p] Мичман37 Скачать
1 | 0
Наши фильмы (HD, WEB-DL 720p, 1080p) [ 4.15 GB ] ДухLess [2012 BDRip HEVC 1080p] Мичман37 Скачать
1 | 0
Наши новые фильмы 2015 [ 1.46 GB ] Духless 2 [2015 Россия DVDRip] DEVI Скачать
1 | 0
Наши новые фильмы 2015 [ 2.05 GB ] Духless 2 [2015 HDRip ] coc900 Скачать
1 | 0
Сборники на DVD и Сиквелы [DVDrip, WEB-DLRip, HDrip, BDRip] [ 2.92 GB ] ДухLess [2012-2015 BDRip-AVC] potroks Скачать
2 | 0
Наши новые фильмы 2015 [ 1.46 GB ] ДухLess 2 [2015 DVDRip-AVC] Оригинал Бумер Скачать
1 | 0
Наши новые фильмы 2015 [ 738 MB ] Духless 2 [2015 DVDRip] khagkfgkahgaer Скачать
1 | 0


Последний раз редактировалось: VaGaBoNd (2012-11-09 18:53), всего редактировалось 1 раз

28-11-2019 20:33  

Отключить всю рекламу на сайте

09-11-2012 18:30 ДухLess Скачать торрент  

VaGaBoNd
Укажи частоту аудио. Скриншоты перезалей на другой фотохостинг. На увеличение их просмотреть нет возможности.piratbit.org



    Дорогой пользователь! Огромная просьба, поблагодарите релизера, оцените раздачу и оставьте свои комментарий, если Вы скачали ДухLess через торрент бесплатно! Внесите свою лепту в развитие PiratBit!
    Комментировать посты могут только пользователи прошедшие не сложную регистрацию
    Показать сообщения:    

    ДухLess через торрент
    Скачать бесплатно ДухLess
    ДухLess скачать торрент
    ДухLess смотреть онлайн
    Cкачать фильм ДухLess бесплатно
    ДухLess скачать торрент в хорошем качестве
    ДухLess смотреть онлайн бесплатно в хорошем качестве


    Вы не можете начинать темы
    Вы не можете отвечать на сообщения
    Вы не можете редактировать свои сообщения
    Вы не можете удалять свои сообщения
    Вы не можете голосовать в опросах
    Вы не можете прикреплять файлы к сообщениям
    Вы можете скачивать файлы