Достать ножи: Стеклянная луковица

MVO

Добыча

Дубляж

Уэнсдэй

1 сезон

Тор

Дубляж

13 клиническая

1 сезон

Жестокая ночь

MVO

Одни из нас

1 сезон

Deluxe

pack

Рекомендуем

30

Пиратка

ВАЖНО

ВАЖНО

Ghostwire

Пиратка

jed

RePack

nioh2

RePack

RDR2

RePack

NEED FOR SPEED™ PAYBACK

RePack

скачать торрент

Кинопоиск HD

Острые козырьки 6 сезон

6 сезон

FAR CRY 6

RePack

скачать торрент

Лицензия

скачать торрент

MVO

1

1 сезон

скачать торрент

1 сезон

скачать торрент

Лицензия

  

Класс / Klass (Ильмар Рааг) [2007 г., драма, BD-Remux, MVO (КАРМЕН ВИДЕО)]

Класс через торрент piratbit.org

Размер: 14.59 GB | Добавлен: 10 лет назад | Торрент скачан:44 раза
Смотреть онлайн | Скачать | Поддержите нас   

11-11-2012 06:16 Класс Скачать торрент  

Класс / Klass
Год выпуска: 2007
Страна: Эстония
Жанр: драма
Продолжительность: 01:37:35
Перевод: Профессиональный многоголосый (КАРМЕН ВИДЕО)
Субтитры: Русские (2 вида), эстонские, английские
Режиссер: Ильмар Рааг
Продюссер: Ильмар Рааг, Рийна Сильдос, Каспар Кальяс
Сценарий: Ильмар Рааг
Мировой рейтинг IMDB 8.00 (6 614)

В ролях: Валло Кирс, Пярт Уусберг, Лаури Педайя, Паула Солвак, Микк Мяги, Риина Риес, Йонас Паас, Кади Метсла, Трийн Тенсо, Вирго Эрнитс
Описание: Обычная эстонская школа, выпускной класс. Парень по имени Йозеп постоянно терпит насмешки и издевательства со стороны одноклассников. Никогда не отвечая на выпады, он провоцирует их заходить в глупых «шутках» все дальше и дальше, до тех пор, пока за него не заступился один из бывших насмешников — Каспар. В классе начинается противостояние, которое постепенно накаляется, приближая неминуемую развязку...
Качество: BD-Remux
Формат: MKV
Видео кодек: H.264x
Аудио кодек: AC3
Видео: AVC at 19,3 Мбит/сек : 1920 x 1080 (1.778) at 25.000 fps
Аудио#1: AC-3 at 192 Кбит/сек Infos : 2 канала, 48,0 КГц Language : Профессиональный многоголосый (КАРМЕН ВИДЕО)
Аудио#2: AC-3 at 192 Кбит/сек Infos : 2 канала, 48,0 КГц Language : любительский одноголосый (lehachuev)
Аудио#3: AC-3 at 192 Кбит/сек Infos : 2 канала, 48,0 КГц Language : Профессиональный одноголосый ("Киноворлд")
Аудио#4: AC-3 at 192 Кбит/сек Infos : 2 канала, 48,0 КГц Language : Профессиональный одноголосый (Синхито)
Аудио#5: AC-3 at 640 Кбит/сек Infos : 6 каналов, 48,0 КГцLanguage : original


Код:

Общее
Уникальный идентификатор                 : 226344650047399827159164101658139771609 (0xAA4864D87404DFA2836EA144DD7542D9)
Полное имя                               : C:UsersСлавонDesktopНовая папкаКласс.2007.Blu-Ray.Remux.(1080p).mkv
Формат                                   : Matroska
Версия формата                           : Version 2
Размер файла                             : 14,6 Гбайт
Продолжительность                        : 1 ч. 38 м.
Режим общего битрейта                    : Переменный
Общий поток                              : 21,2 Мбит/сек
Дата кодирования                         : UTC 2012-10-24 18:22:54
Программа кодирования                    : mkvmerge v5.8.0 ('No Sleep / Pillow') built on Sep  2 2012 15:37:04
Библиотека кодирования                   : libebml v1.2.3 + libmatroska v1.3.0

Видео
Идентификатор                            : 1
Формат                                   : AVC
Формат/Информация                        : Advanced Video Codec
Профиль формата                          : High@L4.1
Параметр CABAC формата                   : Да
Параметр ReFrames формата                : 4 кадра
Параметр GOP формата                     : M=3, N=24
Режим смешивания                         : Container profile=Unknown@0.0
Идентификатор кодека                     : V_MPEG4/ISO/AVC
Продолжительность                        : 1 ч. 38 м.
Вид битрейта                             : Переменный
Битрейт                                  : 19,3 Мбит/сек
Максимальный битрейт                     : 36,0 Мбит/сек
Ширина                                   : 1920 пикселей
Высота                                   : 1080 пикселей
Соотношение сторон                       : 16:9
Режим частоты кадров                     : Постоянный
Частота кадров                           : 25,000 кадров/сек
Стандарт вещания                         : PAL
Цветовое пространство                    : YUV
Субдискретизация насыщенности            : 4:2:0
Битовая глубина                          : 8 бит
Тип развёртки                            : MBAFF
Бит/(Пиксели*Кадры)                      : 0.373
Размер потока                            : 13,3 Гбайт (91%)
Default                                  : Нет
Forced                                   : Нет
Основные цвета                           : BT.709
Характеристики трансфера                 : BT.709
Коэффициенты матрицы                     : BT.709

Аудио #1
Идентификатор                            : 2
Формат                                   : AC-3
Формат/Информация                        : Audio Coding 3
Расширение режима                        : CM (complete main)
Параметр Endianness формата              : Big
Идентификатор кодека                     : A_AC3
Продолжительность                        : 1 ч. 38 м.
Вид битрейта                             : Постоянный
Битрейт                                  : 192 Кбит/сек
Каналы                                   : 2 канала
Расположение каналов                     : Front: L R
Частота                                  : 48,0 КГц
Битовая глубина                          : 16 бит
Метод сжатия                             : С потерями
Размер потока                            : 136 Мбайт (1%)
Заголовок                                : MVO
Язык                                     : Russian
Default                                  : Да
Forced                                   : Нет

Аудио #2
Идентификатор                            : 3
Формат                                   : AC-3
Формат/Информация                        : Audio Coding 3
Расширение режима                        : CM (complete main)
Параметр Endianness формата              : Big
Идентификатор кодека                     : A_AC3
Продолжительность                        : 1 ч. 38 м.
Вид битрейта                             : Постоянный
Битрейт                                  : 192 Кбит/сек
Каналы                                   : 2 канала
Расположение каналов                     : Front: L R
Частота                                  : 48,0 КГц
Битовая глубина                          : 16 бит
Метод сжатия                             : С потерями
Размер потока                            : 136 Мбайт (1%)
Заголовок                                : lehachuev
Язык                                     : Russian
Default                                  : Нет
Forced                                   : Нет

Аудио #3
Идентификатор                            : 4
Формат                                   : AC-3
Формат/Информация                        : Audio Coding 3
Расширение режима                        : CM (complete main)
Параметр Endianness формата              : Big
Идентификатор кодека                     : A_AC3
Продолжительность                        : 1 ч. 38 м.
Вид битрейта                             : Постоянный
Битрейт                                  : 192 Кбит/сек
Каналы                                   : 2 канала
Расположение каналов                     : Front: L R
Частота                                  : 48,0 КГц
Битовая глубина                          : 16 бит
Метод сжатия                             : С потерями
Размер потока                            : 136 Мбайт (1%)
Заголовок                                : Киноворлд
Язык                                     : Russian
Default                                  : Нет
Forced                                   : Нет

Аудио #4
Идентификатор                            : 5
Формат                                   : AC-3
Формат/Информация                        : Audio Coding 3
Расширение режима                        : CM (complete main)
Параметр Endianness формата              : Big
Идентификатор кодека                     : A_AC3
Продолжительность                        : 1 ч. 38 м.
Вид битрейта                             : Постоянный
Битрейт                                  : 192 Кбит/сек
Каналы                                   : 2 канала
Расположение каналов                     : Front: L R
Частота                                  : 48,0 КГц
Битовая глубина                          : 16 бит
Метод сжатия                             : С потерями
Размер потока                            : 136 Мбайт (1%)
Заголовок                                : Синхито
Язык                                     : Russian
Default                                  : Нет
Forced                                   : Нет

Аудио #5
Идентификатор                            : 6
Формат                                   : AC-3
Формат/Информация                        : Audio Coding 3
Расширение режима                        : CM (complete main)
Параметр Endianness формата              : Big
Идентификатор кодека                     : A_AC3
Продолжительность                        : 1 ч. 38 м.
Вид битрейта                             : Постоянный
Битрейт                                  : 640 Кбит/сек
Каналы                                   : 6 каналов
Расположение каналов                     : Front: L C R, Side: L R, LFE
Частота                                  : 48,0 КГц
Битовая глубина                          : 16 бит
Метод сжатия                             : С потерями
Размер потока                            : 452 Мбайт (3%)
Язык                                     : Estonian
Default                                  : Нет
Forced                                   : Нет

Текст #1
Идентификатор                            : 7
Формат                                   : UTF-8
Идентификатор кодека                     : S_TEXT/UTF8
Идентификатор кодека/Информация          : UTF-8 Plain Text
Заголовок                                : v.1
Язык                                     : Russian
Default                                  : Нет
Forced                                   : Нет

Текст #2
Идентификатор                            : 8
Формат                                   : UTF-8
Идентификатор кодека                     : S_TEXT/UTF8
Идентификатор кодека/Информация          : UTF-8 Plain Text
Заголовок                                : v.2
Язык                                     : Russian
Default                                  : Нет
Forced                                   : Нет

Текст #3
Идентификатор                            : 9
Формат                                   : UTF-8
Идентификатор кодека                     : S_TEXT/UTF8
Идентификатор кодека/Информация          : UTF-8 Plain Text
Язык                                     : Estonian
Default                                  : Нет
Forced                                   : Нет

Текст #4
Идентификатор                            : 10
Формат                                   : UTF-8
Идентификатор кодека                     : S_TEXT/UTF8
Идентификатор кодека/Информация          : UTF-8 Plain Text
Язык                                     : English
Default                                  : Нет
Forced                                   : Нет

Меню
00:00:00.000                             : :Chapter 01
00:15:49.800                             : :Chapter 02
00:31:33.760                             : :Chapter 03
00:46:16.000                             : :Chapter 04
01:06:18.600                             : :Chapter 05
01:21:32.720                             : :Chapter 06



Класс скачать торрент





Скачать Класс через торрент https://pic1.kartinco.top/images/111/cjnaj1sb47.jpg Скачать, смотреть онлайн Класс бесплантно в хорошем качестве Описание: Обычная эстонская школа, выпускной класс. Парень по имени Йозеп постоянно терпит насмешки и издевательства со стороны ... 5 10 1
Info! Золотая раздача, скачанное не засчитывается.
Торрент: Зарегистрирован [2012-11-11 06:16] · скачан: 44 раз
Статус: √ проверено
Размер: 14.59 GB
Как cкачать? Как скачать Класс через торрент | UTorrent

% Раздел Тема Автор DL S | L
Фильмы 2006-2008 [ 746 MB ] Класс / Klass | Лицензия | BDRip-AVC sokol_ok Скачать
2 | 0
Фильмы 2006-2008 [ 2.16 GB ] Класс / Klass | Лицензия | BDRip-AVC sokol_ok Скачать
2 | 0
Фильмы 2006-2008 [ 1.49 GB ] Класс / Klass | Лицензия | BDRip-AVC sokol_ok Скачать
2 | 0
Фильмы 2006-2008 [ 1.45 GB ] Класс / Klass | MVO | BDRip Ворон Скачать
1 | 0
Зарубежные сериалы [ 4.72 GB ] Класс: Жизнь после / Klass: elu parast/ Сезон: 1 / Серии: 1-7 | | DVDRip AniMesnik Скачать
1 | 0
Зарубежные сериалы [ 4.65 GB ] Класс: Жизнь после / Klass: elu parast/ Сезон: 1 / Серии: 1-7 | | DVDRip NarutoSasuke Скачать
1 | 0

28-11-2019 20:33  


Отключить вcю реклaмy на сайте, в т.ч. и в плеере онлайн просмотра!

11-11-2012 09:31 Класс Скачать торрент  

Тяжкий фильмец..



02-10-2014 20:38 Класс Скачать торрент  

Спасибо



    Дорогой пользователь! Огромная просьба, поблагодарите релизера, оцените раздачу и оставьте свои комментарий, если Вы скачали Класс через торрент бесплатно!!
    Комментировать посты могут только пользователи прошедшие не сложную регистрацию
    Показать сообщения:    


    Класс через торрент
    Скачать бесплатно Класс
    Класс скачать торрент
    Класс смотреть онлайн
    Cкачать фильм Класс бесплатно
    Класс скачать торрент в хорошем качестве
    Класс смотреть онлайн бесплатно в хорошем качестве
    Вы не можете начинать темы
    Вы не можете отвечать на сообщения
    Вы не можете редактировать свои сообщения
    Вы не можете удалять свои сообщения
    Вы не можете голосовать в опросах
    Вы не можете прикреплять файлы к сообщениям
    Вы можете скачивать файлы
    Класс / Klass [2007 г., драма, BD-Remux, MVO ] смотреть онлайн, скачать торрент picoco.icu